<?xml version="1.0" standalone="no"?>
<!DOCTYPE svg PUBLIC "-//W3C//DTD SVG 1.1//EN" "http://www.w3.org/Graphics/SVG/1.1/DTD/svg11.dtd" >
<svg xmlns="http://www.w3.org/2000/svg" xmlns:xlink="http://www.w3.org/1999/xlink" version="1.1">
<metadata>
Created by FontForge 20190801 at Fri Oct 14 23:21:38 2016
 By www-data
Copyright (c) 2016 by Ermin Meedovic'. All rights reserved.
</metadata>
<defs>
<font id="FinoSansRegular" horiz-adv-x="761" >
  <font-face 
    font-family="FinoSansRegular"
    font-weight="400"
    font-stretch="normal"
    units-per-em="1000"
    panose-1="0 0 5 0 0 0 0 0 0 0"
    ascent="761"
    descent="-239"
    x-height="677"
    cap-height="677"
    bbox="-216 -217 1383 896"
    underline-thickness="50"
    underline-position="-186"
    unicode-range="U+000D-FB02"
  />
<missing-glyph horiz-adv-x="510" 
d="M50 677h409v-677h-409v677zM96 650l159 -285l159 285h-318zM240 338l-159 285v-570zM270 338l159 -285v570zM255 311l-158 -284h316z" />
    <glyph glyph-name="fi" unicode="fi" horiz-adv-x="571" 
d="M340 677v-18h-189v-310h144v-18h-144v-331h-86v677h275zM506 0h-86v677h86v-677z" />
    <glyph glyph-name="fl" unicode="fl" horiz-adv-x="727" 
d="M340 677v-18h-189v-310h144v-18h-144v-331h-86v677h275zM716 18v-18h-296v677h86v-659h210z" />
    <glyph glyph-name=".notdef" horiz-adv-x="510" 
d="M50 677h409v-677h-409v677zM96 650l159 -285l159 285h-318zM240 338l-159 285v-570zM270 338l159 -285v570zM255 311l-158 -284h316z" />
    <glyph glyph-name=".null" horiz-adv-x="0" 
 />
    <glyph glyph-name="nonmarkingreturn" horiz-adv-x="333" 
 />
    <glyph glyph-name="CR" unicode="&#xd;" horiz-adv-x="208" 
 />
    <glyph glyph-name="space" unicode=" " horiz-adv-x="208" 
 />
    <glyph glyph-name="exclam" unicode="!" horiz-adv-x="208" 
d="M52 677l103 14l-42 -495h-18zM104 -10q-22 0 -36.5 15.5t-14.5 37.5q0 23 14 38t37 15q22 0 37 -15.5t15 -37.5t-15 -37.5t-37 -15.5z" />
    <glyph glyph-name="quotedbl" unicode="&#x22;" horiz-adv-x="275" 
d="M116 691l-30 -208h-18l-29 208h77zM236 691l-30 -208h-18l-29 208h77z" />
    <glyph glyph-name="numbersign" unicode="#" horiz-adv-x="379" 
d="M346 436h-59l-17 -170h76v-18h-78l-25 -248h-19l25 248h-139l-25 -248h-19l25 248h-57v18h59l17 170h-76v18h78l22 223h19l-22 -223h139l22 223h19l-22 -223h57v-18zM251 266l17 170h-139l-17 -170h139z" />
    <glyph glyph-name="dollar" unicode="$" horiz-adv-x="363" 
d="M335 158q0 -76 -45.5 -121t-124.5 -47l-6 -86h-18l6 86q-65 4 -115 35l8 14q52 -28 109 -31l21 277l-13 12q-66 62 -93.5 111.5t-28.5 110.5q0 78 44.5 122t120.5 45l5 73l18 -1l-5 -72q48 -3 91 -25l-7 -15q-41 19 -86 22l-20 -272l19 -19q69 -67 94.5 -113.5
t25.5 -105.5zM105 568q0 -43 16.5 -77t57.5 -78l19 255q-45 -1 -69 -28t-24 -72zM167 8q98 4 98 97q0 45 -17 81t-62 82z" />
    <glyph glyph-name="percent" unicode="%" horiz-adv-x="430" 
d="M225 534q0 -144 -94 -144q-49 0 -72 35t-23 109q0 75 23 110t72 35q94 0 94 -145zM50 8l312 670l17 -9l-313 -670zM94 534q0 -127 37 -127q19 0 27 28.5t8 98.5t-8 99t-27 29q-37 0 -37 -128zM395 142q0 -145 -94 -145q-49 0 -72 35t-23 110q0 144 95 144q49 0 71.5 -35
t22.5 -109zM264 142q0 -128 37 -128q19 0 27.5 29t8.5 99q0 69 -8.5 98t-27.5 29q-37 0 -37 -127z" />
    <glyph glyph-name="ampersand" unicode="&#x26;" horiz-adv-x="516" 
d="M501 37l11 -9q-24 -41 -78 -41q-45 0 -103 53q-44 -54 -121 -54q-86 0 -133.5 45.5t-47.5 127.5q0 128 115 192q-36 102 -36 184q0 75 34.5 114.5t97.5 39.5q53 0 83 -32.5t30 -93.5q0 -58 -28 -101.5t-102 -84.5q49 -142 131 -261q12 42 12 93q0 71 -24 135h18
q25 -72 25 -136q0 -62 -19 -109q61 -82 100 -82q22 0 35 20zM241 671q-55 0 -55 -119q0 -63 31 -158q43 40 60.5 77t17.5 96q0 104 -54 104zM216 8q65 0 103 44q-102 102 -168 280q-40 -41 -40 -162q0 -162 105 -162z" />
    <glyph glyph-name="quotesingle" unicode="'" horiz-adv-x="155" 
d="M116 691l-30 -208h-18l-29 208h77z" />
    <glyph glyph-name="parenleft" unicode="(" horiz-adv-x="259" 
d="M244 -82l-14 -14q-102 86 -146 189t-44 250t44 249.5t146 188.5l14 -14q-62 -57 -91.5 -156t-29.5 -269q0 -169 29.5 -268t91.5 -156z" />
    <glyph glyph-name="parenright" unicode=")" horiz-adv-x="259" 
d="M15 -82q62 57 91.5 156t29.5 268q0 170 -29.5 269t-91.5 156l14 14q102 -86 146 -188.5t44 -249.5t-44 -250t-146 -189z" />
    <glyph glyph-name="asterisk" unicode="*" horiz-adv-x="381" 
d="M345 610l-136 -65l136 -65l-21 -36l-124 84l12 -179h-42l12 181l-124 -86l-22 36l135 65l-135 65l22 36l124 -86l-12 181h42l-12 -179l124 84z" />
    <glyph glyph-name="plus" unicode="+" horiz-adv-x="354" 
d="M167 337h-142v18h142v208h20v-208h142v-18h-142v-209h-20v209z" />
    <glyph glyph-name="comma" unicode="," horiz-adv-x="181" 
d="M25 -118q52 52 52 100q0 45 -43 62q0 24 15.5 41t39.5 17q23 0 38.5 -17t15.5 -47q0 -91 -104 -171z" />
    <glyph glyph-name="hyphen" unicode="-" horiz-adv-x="238" 
d="M30 354v18h178v-18h-178z" />
    <glyph glyph-name="period" unicode="." horiz-adv-x="182" 
d="M90 -11q-23 0 -38.5 16.5t-15.5 40.5q0 23 16 39.5t38 16.5q23 0 39 -16t16 -40q0 -25 -15.5 -41t-39.5 -16z" />
    <glyph glyph-name="slash" unicode="/" horiz-adv-x="266" 
d="M49 -205h-21l190 979h20z" />
    <glyph glyph-name="zero" unicode="0" horiz-adv-x="438" 
d="M391 337q0 -180 -42.5 -265t-131.5 -85q-88 0 -129 85t-41 265q0 179 41.5 263.5t130.5 84.5t130.5 -84.5t41.5 -263.5zM136 337q0 -172 19.5 -252t61.5 -80q84 0 84 332q0 330 -82 330q-43 0 -63 -79.5t-20 -250.5z" />
    <glyph glyph-name="one" unicode="1" horiz-adv-x="247" 
d="M175 0h-86v631h-65v15l136 42h15v-688z" />
    <glyph glyph-name="two" unicode="2" horiz-adv-x="350" 
d="M48 65h266v-65h-287v38q0 91 97 232q96 145 96 287q0 53 -23 78.5t-61 25.5q-41 0 -84 -26l-10 17q51 33 112 33q73 0 113.5 -38.5t40.5 -116.5q0 -128 -137 -265q-111 -106 -123 -200z" />
    <glyph glyph-name="three" unicode="3" horiz-adv-x="349" 
d="M168 358q71 -6 104.5 -53t33.5 -120q0 -103 -52 -151t-128 -48q-52 0 -102 24l8 15q39 -18 78 -18q107 0 107 173q0 84 -22.5 126t-62.5 42h-42v18h40q71 0 71 164q0 136 -82 136q-32 0 -78 -24l-7 13q51 30 107 30q64 0 105.5 -39t41.5 -112q0 -153 -120 -176z" />
    <glyph glyph-name="four" unicode="4" horiz-adv-x="375" 
d="M284 677v-440h67v-27h-67v-210h-84v210h-185v25l194 442h75zM200 604l-162 -367h162v367z" />
    <glyph glyph-name="five" unicode="5" horiz-adv-x="358" 
d="M151 406q80 0 126.5 -48t46.5 -140q0 -114 -49.5 -172.5t-145.5 -58.5q-46 0 -98 21l8 17q45 -20 88 -20q57 0 82.5 52t25.5 156q0 96 -23 133.5t-75 37.5q-40 0 -77 -25l-13 5l29 313h219v-72h-203l-21 -222q33 23 80 23z" />
    <glyph glyph-name="six" unicode="6" horiz-adv-x="394" 
d="M215 408q144 0 144 -196q0 -110 -40 -167.5t-116 -57.5q-78 0 -119 70.5t-41 204.5q0 396 294 429l2 -18q-179 -31 -206 -296q37 31 82 31zM205 5q36 0 51.5 43t15.5 145q0 109 -13.5 151t-53.5 42q-41 0 -74 -33q-2 -48 -2 -74q1 -154 19.5 -214t56.5 -60z" />
    <glyph glyph-name="seven" unicode="7" horiz-adv-x="326" 
d="M17 677h288v-67q-69 -139 -92.5 -283t-25.5 -327h-97q24 306 196 608h-269v69z" />
    <glyph glyph-name="eight" unicode="8" horiz-adv-x="405" 
d="M255 352q34 -28 53 -48t36.5 -59t17.5 -88q0 -78 -41.5 -124t-121.5 -46q-74 0 -115 44.5t-41 122.5q0 119 101 183q-43 36 -66 76.5t-23 103.5q0 81 40 124.5t114 43.5q71 0 106.5 -41t35.5 -115q0 -123 -96 -177zM208 667q-36 0 -55 -32t-18 -90q0 -45 17.5 -81.5
t36 -55t53.5 -46.5q45 45 45 164q0 141 -79 141zM199 5q80 0 80 125q0 30 -8 57t-15.5 42.5t-29.5 37t-29.5 27.5t-35.5 29q-49 -31 -49 -163q0 -155 87 -155z" />
    <glyph glyph-name="nine" unicode="9" horiz-adv-x="394" 
d="M190 690q79 0 120 -70t41 -206q0 -406 -297 -427l2 18q97 14 145 86.5t59 206.5q-35 -30 -80 -30q-145 0 -145 201q0 107 40 164t115 57zM190 290q42 0 72 32q2 50 2 77q1 148 -17 209.5t-58 61.5q-35 0 -50.5 -41.5t-16.5 -130.5q0 -121 14 -164.5t54 -43.5z" />
    <glyph glyph-name="colon" unicode=":" horiz-adv-x="225" 
d="M111 385q-23 0 -38.5 16.5t-15.5 40.5q0 23 16 39.5t38 16.5q23 0 39 -16t16 -40q0 -25 -15.5 -41t-39.5 -16zM111 -11q-23 0 -38.5 16.5t-15.5 40.5q0 23 16 39.5t38 16.5q23 0 39 -16t16 -40q0 -25 -15.5 -41t-39.5 -16z" />
    <glyph glyph-name="semicolon" unicode=";" horiz-adv-x="240" 
d="M122 385q-23 0 -38.5 16.5t-15.5 40.5q0 23 16 39.5t38 16.5q23 0 39 -16t16 -40q0 -25 -15.5 -41t-39.5 -16zM57 -118q52 52 52 100q0 45 -43 62q0 24 15.5 41t39.5 17q23 0 38.5 -17t15.5 -47q0 -91 -104 -171z" />
    <glyph glyph-name="less" unicode="&#x3c;" horiz-adv-x="331" 
d="M274 528v-20l-232 -155l232 -154v-22l-251 169v14z" />
    <glyph glyph-name="equal" unicode="=" horiz-adv-x="423" 
d="M59 405v18h305v-18h-305zM59 268v18h305v-18h-305z" />
    <glyph glyph-name="greater" unicode="&#x3e;" horiz-adv-x="330" 
d="M56 528l251 -168v-14l-251 -169v22l232 154l-232 155v20z" />
    <glyph glyph-name="question" unicode="?" horiz-adv-x="306" 
d="M120 192q-22 55 -22 103q0 61 47 134q30 51 42 82.5t12 68.5q0 48 -21 71t-63 22q-40 -2 -82 -24l-6 13q47 28 104 28q64 1 104.5 -33.5t40.5 -100.5q0 -77 -87 -165q-35 -37 -50.5 -64.5t-15.5 -59.5q0 -31 13 -69zM126 -10q-22 0 -36.5 15.5t-14.5 37.5t14 37.5
t37 15.5q22 0 37 -15.5t15 -38.5q0 -22 -15 -37t-37 -15z" />
    <glyph glyph-name="at" unicode="@" horiz-adv-x="756" 
d="M535 149q-42 0 -63.5 20.5t-20.5 67.5q-39 -86 -118 -86q-56 0 -86 33.5t-30 94.5q0 105 60 180.5t154 75.5q52 0 91 -25l27 25h16l-58 -282q-10 -46 -4 -66t36 -20q76 0 122.5 64.5t46.5 169.5q0 122 -86 196t-208 74q-63 0 -117.5 -19.5t-99 -58t-70.5 -103.5t-26 -149
q0 -151 84 -241.5t216 -90.5q101 0 185 54l7 -11q-90 -61 -193 -61q-90 0 -160.5 27.5t-114 75.5t-65.5 109.5t-22 132.5q0 168 107.5 260.5t268.5 92.5q132 0 223 -80t91 -207q0 -117 -54.5 -185t-138.5 -68zM336 169q45 0 80 40t52 122l34 160q-29 27 -71 27
q-68 0 -111 -75t-43 -166q0 -108 59 -108z" />
    <glyph glyph-name="A" unicode="A" horiz-adv-x="411" 
d="M301 0l-51 231h-159l-52 -231h-21l143 632l-10 45h89l150 -677h-89zM95 249h151l-75 338z" />
    <glyph glyph-name="B" unicode="B" horiz-adv-x="439" 
d="M251 362q73 -8 112.5 -51t39.5 -117q0 -93 -45 -143.5t-128 -50.5h-165v677h156q156 0 156 -157q0 -62 -31.5 -104t-94.5 -54zM151 659v-291h42q45 0 70.5 40.5t25.5 113.5q0 137 -91 137h-47zM208 18q50 0 77 45.5t27 125.5q0 76 -29.5 118.5t-83.5 42.5h-48v-332h57z
" />
    <glyph glyph-name="C" unicode="C" horiz-adv-x="640" 
d="M632 67q-106 -80 -237 -80q-71 0 -134 21t-113.5 63t-80 111.5t-29.5 158.5q0 111 53 192t136.5 119.5t184.5 38.5q111 0 193 -46l-7 -11q-76 38 -179 38q-135 0 -209 -86.5t-74 -246.5t73.5 -246t192.5 -86q127 0 221 70z" />
    <glyph glyph-name="D" unicode="D" horiz-adv-x="677" 
d="M65 677h206q367 0 367 -340q0 -161 -99 -249t-285 -88h-189v677zM151 18h94q146 0 220.5 86t74.5 233q0 155 -75 238.5t-218 83.5h-96v-641z" />
    <glyph glyph-name="E" unicode="E" horiz-adv-x="378" 
d="M365 18v-18h-300v677h281v-18h-195v-306h157v-18h-157v-317h214z" />
    <glyph glyph-name="F" unicode="F" horiz-adv-x="355" 
d="M340 677v-18h-189v-310h144v-18h-144v-331h-86v677h275z" />
    <glyph glyph-name="G" unicode="G" horiz-adv-x="683" 
d="M447 334h195v-296q-113 -51 -238 -51q-162 0 -264 88t-102 255q0 89 31.5 159.5t85.5 113.5t121.5 65.5t143.5 22.5q118 0 199 -46l-6 -11q-76 38 -183 38q-136 0 -215.5 -87.5t-79.5 -249.5q0 -156 75.5 -243t202.5 -87q80 0 143 21v290h-109v18z" />
    <glyph glyph-name="H" unicode="H" horiz-adv-x="494" 
d="M343 342h-192v-342h-86v677h86v-317h192v317h86v-677h-86v342z" />
    <glyph glyph-name="I" unicode="I" horiz-adv-x="216" 
d="M151 0h-86v677h86v-677z" />
    <glyph glyph-name="J" unicode="J" horiz-adv-x="301" 
d="M152 677h86v-551q0 -49 -23.5 -82.5t-58.5 -45.5t-75 -6.5t-72 28.5l10 14q28 -19 58 -23t52.5 14.5t22.5 61.5v590z" />
    <glyph glyph-name="K" unicode="K" horiz-adv-x="428" 
d="M65 0v677h86v-677h-86zM238 409l190 -409h-100l-152 340l198 337h21z" />
    <glyph glyph-name="L" unicode="L" horiz-adv-x="372" 
d="M361 18v-18h-296v677h86v-659h210z" />
    <glyph glyph-name="M" unicode="M" horiz-adv-x="588" 
d="M440 677h82v-677h-85v594l-170 -600h-13l-168 569v-563h-20v619l-17 58h94l149 -522z" />
    <glyph glyph-name="N" unicode="N" horiz-adv-x="463" 
d="M378 677h20v-677h-89l-222 570v-570h-20v614l-25 63h91l245 -624v624z" />
    <glyph glyph-name="O" unicode="O" horiz-adv-x="797" 
d="M399 -13q-161 0 -261 97.5t-100 253.5q0 157 100 255t260 98q159 0 260 -98.5t101 -252.5q0 -156 -101 -254.5t-259 -98.5zM399 3q119 0 191 92t72 243q0 154 -72 245.5t-192 91.5q-119 0 -191 -91.5t-72 -242.5q0 -153 72 -245.5t192 -92.5z" />
    <glyph glyph-name="P" unicode="P" horiz-adv-x="406" 
d="M65 677h133q180 0 180 -192q0 -100 -51.5 -152t-144.5 -52h-31v-281h-86v677zM151 299h30q48 0 75 46t27 137q0 177 -101 177h-31v-360z" />
    <glyph glyph-name="Q" unicode="Q" horiz-adv-x="797" 
d="M768 -132l13 -14q-62 -60 -150 -60q-73 0 -145.5 48t-127.5 147q-144 13 -232 108t-88 241q0 157 100 255t260 98q159 0 260 -98.5t101 -252.5q0 -143 -86 -238.5t-225 -111.5q86 -172 206 -172q61 0 114 50zM135 341q0 -137 58 -226.5t158 -107.5l72 40q2 -5 8 -19.5
t9 -21.5q102 17 162 106t60 226q0 155 -71 246t-193 91q-119 0 -191 -91.5t-72 -242.5z" />
    <glyph glyph-name="R" unicode="R" horiz-adv-x="432" 
d="M357 217l56 -217h-92l-50 226q-27 110 -90 110h-30v-336h-86v677h143q87 0 130 -44.5t43 -115.5q0 -77 -42.5 -121t-109.5 -52q100 -17 128 -127zM151 659v-305h40q45 0 71 38.5t26 117.5q0 71 -21 110t-75 39h-41z" />
    <glyph glyph-name="S" unicode="S" horiz-adv-x="364" 
d="M310 661l-7 -15q-50 23 -97 22q-46 0 -72.5 -27t-26.5 -75q0 -51 25 -91t82 -97q72 -72 97 -115.5t25 -104.5q0 -78 -45.5 -123t-128.5 -45q-73 0 -129 35l8 14q54 -31 120 -31q103 0 104 101q0 50 -22.5 89.5t-84.5 98.5q-63 61 -92.5 110.5t-29.5 113.5
q0 76 46.5 120.5t121.5 44.5q58 0 106 -25z" />
    <glyph glyph-name="T" unicode="T" horiz-adv-x="404" 
d="M10 677h384v-18h-149v-659h-86v659h-149v18z" />
    <glyph glyph-name="U" unicode="U" horiz-adv-x="458" 
d="M64 677h86v-489q0 -93 25.5 -135t83.5 -42q53 0 86 36.5t33 143.5v486h20v-484q0 -111 -39.5 -158.5t-113.5 -47.5q-95 0 -138 50.5t-43 172.5v467z" />
    <glyph glyph-name="V" unicode="V" horiz-adv-x="408" 
d="M365 677h21l-135 -677h-87l-143 677h90l131 -627z" />
    <glyph glyph-name="W" unicode="W" horiz-adv-x="578" 
d="M530 677h21l-102 -677h-80l-79 448l-82 -448h-80l-104 677h88l89 -604l79 430l-16 92h85l91 -525z" />
    <glyph glyph-name="X" unicode="X" horiz-adv-x="385" 
d="M375 0h-97l-113 297l-129 -297h-21l141 321l-136 356h96l103 -270l113 270h21l-124 -296z" />
    <glyph glyph-name="Y" unicode="Y" horiz-adv-x="397" 
d="M373 677l-130 -377v-300h-86v289l-135 388h92l118 -349l120 349h21z" />
    <glyph glyph-name="Z" unicode="Z" horiz-adv-x="365" 
d="M103 18h241v-18h-326v22l236 637h-221v18h308v-16z" />
    <glyph glyph-name="bracketleft" unicode="[" horiz-adv-x="246" 
d="M69 -111v901h151v-20h-73v-861h73v-20h-151z" />
    <glyph glyph-name="backslash" unicode="\" horiz-adv-x="313" 
d="M42 754l248 -928h-19l-248 928h19z" />
    <glyph glyph-name="bracketright" unicode="]" horiz-adv-x="246" 
d="M177 -111h-151v20h73v861h-73v20h151v-901z" />
    <glyph glyph-name="asciicircum" unicode="^" horiz-adv-x="328" 
d="M299 349h-21l-115 296l-114 -296h-21l126 323h19z" />
    <glyph glyph-name="underscore" unicode="_" horiz-adv-x="385" 
d="M0 -205v18h385v-18h-385z" />
    <glyph glyph-name="a" unicode="a" horiz-adv-x="411" 
d="M301 0l-51 231h-159l-52 -231h-21l143 632l-10 45h89l150 -677h-89zM95 249h151l-75 338z" />
    <glyph glyph-name="b" unicode="b" horiz-adv-x="439" 
d="M251 362q73 -8 112.5 -51t39.5 -117q0 -93 -45 -143.5t-128 -50.5h-165v677h156q156 0 156 -157q0 -62 -31.5 -104t-94.5 -54zM151 659v-291h42q45 0 70.5 40.5t25.5 113.5q0 137 -91 137h-47zM208 18q50 0 77 45.5t27 125.5q0 76 -29.5 118.5t-83.5 42.5h-48v-332h57z
" />
    <glyph glyph-name="c" unicode="c" horiz-adv-x="423" 
d="M410 67q-63 -80 -148 -80q-99 0 -160 88.5t-61 258.5q0 97 21 169.5t56 111.5t73.5 57t80.5 18q68 0 119 -42l-9 -11q-44 35 -100 35q-146 0 -146 -342q0 -167 35.5 -244t106.5 -77q73 0 121 66z" />
    <glyph glyph-name="d" unicode="d" horiz-adv-x="493" 
d="M65 677h134q130 0 191 -83t61 -252q0 -342 -254 -342h-132v677zM151 18h41q165 0 165 318q0 323 -164 323h-42v-641z" />
    <glyph glyph-name="e" unicode="e" horiz-adv-x="378" 
d="M365 18v-18h-300v677h281v-18h-195v-306h157v-18h-157v-317h214z" />
    <glyph glyph-name="f" unicode="f" horiz-adv-x="355" 
d="M340 677v-18h-189v-310h144v-18h-144v-331h-86v677h275z" />
    <glyph glyph-name="g" unicode="g" horiz-adv-x="469" 
d="M263 334h165v-318q-82 -30 -150 -30q-237 0 -237 342q0 105 21.5 180t59.5 113t78 54t88 16q65 0 123 -35l-8 -11q-50 26 -102 26q-27 0 -48.5 -7t-44.5 -28.5t-38 -57.5t-25 -98t-10 -145q0 -329 158 -329q23 0 49 6v304h-79v18z" />
    <glyph glyph-name="h" unicode="h" horiz-adv-x="494" 
d="M343 342h-192v-342h-86v677h86v-317h192v317h86v-677h-86v342z" />
    <glyph glyph-name="i" unicode="i" horiz-adv-x="216" 
d="M151 0h-86v677h86v-677z" />
    <glyph glyph-name="j" unicode="j" horiz-adv-x="301" 
d="M152 677h86v-551q0 -49 -23.5 -82.5t-58.5 -45.5t-75 -6.5t-72 28.5l10 14q28 -19 58 -23t52.5 14.5t22.5 61.5v590z" />
    <glyph glyph-name="k" unicode="k" horiz-adv-x="428" 
d="M65 0v677h86v-677h-86zM238 409l190 -409h-100l-152 340l198 337h21z" />
    <glyph glyph-name="l" unicode="l" horiz-adv-x="372" 
d="M361 18v-18h-296v677h86v-659h210z" />
    <glyph glyph-name="m" unicode="m" horiz-adv-x="588" 
d="M440 677h82v-677h-85v594l-170 -600h-13l-168 569v-563h-20v619l-17 58h94l149 -522z" />
    <glyph glyph-name="n" unicode="n" horiz-adv-x="463" 
d="M378 677h20v-677h-89l-222 570v-570h-20v614l-25 63h91l245 -624v624z" />
    <glyph glyph-name="o" unicode="o" horiz-adv-x="508" 
d="M256 691q103 0 156 -89t53 -262q0 -174 -53.5 -263.5t-157.5 -89.5t-158 89t-54 262q0 174 54.5 263.5t159.5 89.5zM253 673q-117 0 -117 -332q0 -336 118 -336q117 0 117 332q0 336 -118 336z" />
    <glyph glyph-name="p" unicode="p" horiz-adv-x="406" 
d="M65 677h133q180 0 180 -192q0 -100 -51.5 -152t-144.5 -52h-31v-281h-86v677zM151 299h30q48 0 75 46t27 137q0 177 -101 177h-31v-360z" />
    <glyph glyph-name="q" unicode="q" horiz-adv-x="508" 
d="M529 -80l12 -11q-40 -61 -115 -61q-59 0 -116 38.5t-85 102.5q-183 24 -183 349q0 174 54.5 263.5t159.5 89.5q103 0 156 -89t53 -262q0 -314 -169 -349q27 -57 64.5 -89.5t75.5 -32.5q53 0 93 51zM136 341q0 -285 86 -329l51 42q5 -18 14 -41q84 44 84 324
q0 336 -118 336q-117 0 -117 -332z" />
    <glyph glyph-name="r" unicode="r" horiz-adv-x="432" 
d="M357 217l56 -217h-92l-50 226q-27 110 -90 110h-30v-336h-86v677h143q87 0 130 -44.5t43 -115.5q0 -77 -42.5 -121t-109.5 -52q100 -17 128 -127zM151 659v-305h40q45 0 71 38.5t26 117.5q0 71 -21 110t-75 39h-41z" />
    <glyph glyph-name="s" unicode="s" horiz-adv-x="364" 
d="M310 661l-7 -15q-50 23 -97 22q-46 0 -72.5 -27t-26.5 -75q0 -51 25 -91t82 -97q72 -72 97 -115.5t25 -104.5q0 -78 -45.5 -123t-128.5 -45q-73 0 -129 35l8 14q54 -31 120 -31q103 0 104 101q0 50 -22.5 89.5t-84.5 98.5q-63 61 -92.5 110.5t-29.5 113.5
q0 76 46.5 120.5t121.5 44.5q58 0 106 -25z" />
    <glyph glyph-name="t" unicode="t" horiz-adv-x="404" 
d="M10 677h384v-18h-149v-659h-86v659h-149v18z" />
    <glyph glyph-name="u" unicode="u" horiz-adv-x="458" 
d="M64 677h86v-489q0 -93 25.5 -135t83.5 -42q53 0 86 36.5t33 143.5v486h20v-484q0 -111 -39.5 -158.5t-113.5 -47.5q-95 0 -138 50.5t-43 172.5v467z" />
    <glyph glyph-name="v" unicode="v" horiz-adv-x="408" 
d="M365 677h21l-135 -677h-87l-143 677h90l131 -627z" />
    <glyph glyph-name="w" unicode="w" horiz-adv-x="578" 
d="M530 677h21l-102 -677h-80l-79 448l-82 -448h-80l-104 677h88l89 -604l79 430l-16 92h85l91 -525z" />
    <glyph glyph-name="x" unicode="x" horiz-adv-x="385" 
d="M375 0h-97l-113 297l-129 -297h-21l141 321l-136 356h96l103 -270l113 270h21l-124 -296z" />
    <glyph glyph-name="y" unicode="y" horiz-adv-x="397" 
d="M373 677l-130 -377v-300h-86v289l-135 388h92l118 -349l120 349h21z" />
    <glyph glyph-name="z" unicode="z" horiz-adv-x="365" 
d="M103 18h241v-18h-326v22l236 637h-221v18h308v-16z" />
    <glyph glyph-name="braceleft" unicode="{" horiz-adv-x="250" 
d="M190 -110q-54 0 -82.5 31.5t-28.5 105.5q0 34 8 108t8 98q0 89 -69 97v20q69 5 69 102q0 32 -8 102.5t-8 100.5q0 73 29 104t87 31h23v-17q-31 -2 -45.5 -26t-14.5 -77q0 -40 8 -115.5t8 -97.5q0 -100 -103 -117v-1q103 -18 103 -115q0 -22 -8 -105t-8 -118q0 -93 60 -94
v-17h-28z" />
    <glyph glyph-name="bar" unicode="|" horiz-adv-x="154" 
d="M68 -196v931h18v-931h-18z" />
    <glyph glyph-name="braceright" unicode="}" horiz-adv-x="250" 
d="M61 -110h-28v17q60 1 60 94q0 35 -8 118t-8 105q0 97 103 115v1q-103 17 -103 117q0 22 8 97.5t8 115.5q0 53 -14.5 77t-45.5 26v17h23q58 0 87 -31t29 -104q0 -30 -8 -100.5t-8 -102.5q0 -97 69 -102v-20q-69 -8 -69 -97q0 -24 8 -98t8 -108q0 -74 -28.5 -105.5
t-82.5 -31.5z" />
    <glyph glyph-name="asciitilde" unicode="~" horiz-adv-x="412" 
d="M66 306h-15q0 41 22 62.5t51 21.5q28 0 50.5 -12t35 -27t32.5 -27t44 -12q26 0 44.5 18.5t18.5 52.5h15q0 -42 -23 -64.5t-55 -22.5q-28 0 -50.5 12t-35 27t-32.5 27t-44 12t-41 -17t-17 -51z" />
    <glyph glyph-name="uni00A0" unicode="&#xa0;" horiz-adv-x="208" 
 />
    <glyph glyph-name="exclamdown" unicode="&#xa1;" horiz-adv-x="208" 
d="M104 688q22 0 36.5 -15.5t14.5 -37.5q0 -23 -14 -38t-37 -15q-22 0 -37 15.5t-15 37.5t15 37.5t37 15.5zM156 1l-103 -14l42 495h18z" />
    <glyph glyph-name="cent" unicode="&#xa2;" horiz-adv-x="358" 
d="M333 184q-50 -45 -116 -45h-5l-6 -103l-18 1l6 104q-68 10 -113 79t-45 190q0 137 55.5 207t136.5 70h1l4 70h18l-4 -71q43 -5 74 -28l-8 -12q-28 20 -67 24l-32 -513h9q57 0 103 36zM132 419q0 -128 15.5 -186.5t48.5 -70.5l32 508q-47 -4 -71.5 -61t-24.5 -190z" />
    <glyph glyph-name="sterling" unicode="&#xa3;" horiz-adv-x="360" 
d="M152 66h177v-66h-294l-4 16q89 102 89 213q0 39 -14 93h-61v18h56q-2 6 -12 42t-13 49.5t-7.5 40.5t-4.5 48q0 82 46.5 126.5t111.5 44.5q46 0 91 -24l-8 -14q-44 20 -75 19q-42 -1 -66.5 -30.5t-24.5 -82.5q0 -35 16.5 -114.5t19.5 -104.5h117v-18h-114q2 -26 2 -39
q0 -118 -92 -223l2 -2q24 8 62 8z" />
    <glyph glyph-name="yen" unicode="&#xa5;" horiz-adv-x="407" 
d="M369 321h-122v-115h122v-18h-122v-188h-86v188h-122v18h122v115h-122v18h118l-116 338h92l104 -318l104 318h20l-111 -338h119v-18z" />
    <glyph glyph-name="brokenbar" unicode="&#xa6;" horiz-adv-x="147" 
d="M64 376v359h18v-359h-18zM64 -196v359h18v-359h-18z" />
    <glyph glyph-name="section" unicode="&#xa7;" horiz-adv-x="327" 
d="M265 160l-11 13q5 30 5 51q0 45 -22 77t-78 79q-58 49 -83.5 87.5t-25.5 88.5q0 64 39 99t96 35q43 0 85 -22l-7 -14q-37 18 -73 18q-81 0 -81 -92q0 -38 20.5 -67t85.5 -89q46 -41 61.5 -74.5t15.5 -73.5q0 -52 -27 -116zM62 -57q32 -19 73 -19q40 0 62.5 20.5
t22.5 60.5q0 36 -19.5 67t-68.5 76q-53 47 -74.5 85t-21.5 89q0 55 26 121l11 -14q-8 -42 -8 -65q0 -41 21.5 -72t75.5 -74q66 -54 91 -92t25 -87q0 -66 -42 -99.5t-99 -33.5q-45 0 -82 20z" />
    <glyph glyph-name="copyright" unicode="&#xa9;" horiz-adv-x="750" 
d="M375 5q-140 0 -239 97.5t-99 233.5q0 137 99.5 234t239.5 97q139 0 238 -96.5t99 -233.5t-99 -234.5t-239 -97.5zM375 23q130 0 223.5 92t93.5 221t-92.5 221t-224.5 92t-224.5 -92t-92.5 -221q0 -130 93.5 -221.5t223.5 -91.5zM389 156q-77 0 -127 49t-49 133
q-1 86 51.5 134.5t134.5 48.5q48 0 90 -18l-6 -16q-35 16 -76 16q-120 0 -120 -166q0 -162 113 -162q55 0 96 29l8 -12q-54 -36 -115 -36z" />
    <glyph glyph-name="guillemotleft" unicode="&#xab;" horiz-adv-x="328" 
d="M150 343q68 72 106 163l14 -2q-7 -62 -56 -168q49 -105 56 -166l-14 -2q-38 91 -106 163v12zM36 343q64 66 101 153l14 -2q-4 -52 -51 -158q47 -107 51 -156l-14 -2q-37 87 -101 153v12z" />
    <glyph glyph-name="logicalnot" unicode="&#xac;" horiz-adv-x="420" 
d="M361 447v-205h-20v187h-288v18h308z" />
    <glyph glyph-name="registered" unicode="&#xae;" horiz-adv-x="497" 
d="M249 745q90 0 153.5 -64t63.5 -151q0 -89 -63.5 -152.5t-153.5 -63.5q-92 0 -155 62.5t-63 153.5q0 90 64.5 152.5t153.5 62.5zM249 331q83 0 140.5 58.5t57.5 140.5q0 80 -58 139t-140 59q-81 0 -139.5 -57t-58.5 -141q0 -82 57.5 -140.5t140.5 -58.5zM267 527
q28 -11 39 -37l30 -69h-40l-32 82q-7 17 -23 17h-14v-99h-32v223h54q40 0 56.5 -17.5t16.5 -42.5q0 -21 -15 -37t-40 -20zM227 630v-96h19q15 0 27 13t11 35q1 23 -10 35.5t-31 12.5h-16z" />
    <glyph glyph-name="plusminus" unicode="&#xb1;" horiz-adv-x="405" 
d="M355 410v-18h-143v-210h-20v210h-142v18h142v207h20v-207h143zM50 103v18h305v-18h-305z" />
    <glyph glyph-name="paragraph" unicode="&#xb6;" horiz-adv-x="415" 
d="M342 677v-777h-86v759h-38v-501q-95 0 -142.5 73.5t-47.5 187.5q0 111 52.5 184.5t137.5 73.5h124z" />
    <glyph glyph-name="periodcentered" unicode="&#xb7;" horiz-adv-x="200" 
d="M99 301q-23 0 -38.5 16.5t-15.5 40.5q0 23 16 39.5t38 16.5q23 0 39 -16t16 -40q0 -25 -15.5 -41t-39.5 -16z" />
    <glyph glyph-name="cedilla" unicode="&#xb8;" horiz-adv-x="318" 
d="M153 1h21l-28 -64q14 6 29 6q27 0 47.5 -18.5t20.5 -51.5q0 -38 -25 -58.5t-61 -20.5q-40 0 -67 23l12 15q20 -17 41 -17q19 0 31.5 15t12.5 42q0 48 -34 48q-8 0 -17 -3l-12 10z" />
    <glyph glyph-name="guillemotright" unicode="&#xbb;" horiz-adv-x="329" 
d="M179 343v-12q-68 -72 -106 -163l-14 2q7 61 56 166q-49 106 -56 168l14 2q38 -91 106 -163zM293 343v-12q-64 -66 -101 -153l-14 2q4 49 51 156q-47 106 -51 158l14 2q37 -87 101 -153z" />
    <glyph glyph-name="questiondown" unicode="&#xbf;" horiz-adv-x="307" 
d="M182 688q22 0 36.5 -15.5t14.5 -37.5t-14 -37.5t-37 -15.5q-22 0 -37 15.5t-15 38.5q0 22 15 37t37 15zM188 486q22 -55 22 -103q0 -61 -47 -134q-30 -51 -42 -82.5t-12 -68.5q0 -48 21 -71t63 -22q40 2 82 24l6 -13q-47 -28 -104 -28q-64 -1 -104.5 33.5t-40.5 100.5
q0 77 87 165q35 37 50.5 64.5t15.5 59.5q0 31 -13 69z" />
    <glyph glyph-name="Agrave" unicode="&#xc0;" horiz-adv-x="411" 
d="M287 740l-5 -14q-104 20 -184 74l47 73q57 -85 142 -133zM301 0l-51 231h-159l-52 -231h-21l143 632l-10 45h89l150 -677h-89zM95 249h151l-75 338z" />
    <glyph glyph-name="Aacute" unicode="&#xc1;" horiz-adv-x="411" 
d="M324 784q-85 -43 -180 -56l-6 16q93 50 143 114zM301 0l-51 231h-159l-52 -231h-21l143 632l-10 45h89l150 -677h-89zM95 249h151l-75 338z" />
    <glyph glyph-name="Acircumflex" unicode="&#xc2;" horiz-adv-x="411" 
d="M207 807l-119 -84l-12 12l96 118h71l97 -118l-13 -13zM301 0l-51 231h-159l-52 -231h-21l143 632l-10 45h89l150 -677h-89zM95 249h151l-75 338z" />
    <glyph glyph-name="Atilde" unicode="&#xc3;" horiz-adv-x="411" 
d="M140 797q-29 0 -34 -50h-16q0 102 60 102q30 0 73.5 -25t53.5 -25q31 0 35 50h16q0 -102 -61 -102q-27 0 -71 25t-56 25zM301 0l-51 231h-159l-52 -231h-21l143 632l-10 45h89l150 -677h-89zM95 249h151l-75 338z" />
    <glyph glyph-name="Adieresis" unicode="&#xc4;" horiz-adv-x="411" 
d="M132 745q-19 0 -33.5 15t-14.5 34q0 21 14.5 35.5t33.5 14.5q21 0 34.5 -14.5t13.5 -35.5q0 -20 -13.5 -34.5t-34.5 -14.5zM278 745q-20 0 -34.5 14.5t-14.5 34.5q0 21 14.5 35.5t34.5 14.5q19 0 33 -14.5t14 -35.5q0 -20 -14 -34.5t-33 -14.5zM301 0l-51 231h-159
l-52 -231h-21l143 632l-10 45h89l150 -677h-89zM95 249h151l-75 338z" />
    <glyph glyph-name="Aring" unicode="&#xc5;" horiz-adv-x="411" 
d="M205 721q-35 0 -55.5 20.5t-20.5 55.5q0 34 21 55.5t55 21.5t54.5 -21t20.5 -56q0 -33 -21 -54.5t-54 -21.5zM205 857q-24 0 -38.5 -16.5t-14.5 -43.5t14.5 -43.5t38.5 -16.5q23 0 37.5 16.5t14.5 43.5t-14.5 43.5t-37.5 16.5zM301 0l-51 231h-159l-52 -231h-21l143 632
l-10 45h89l150 -677h-89zM95 249h151l-75 338z" />
    <glyph glyph-name="AE" unicode="&#xc6;" horiz-adv-x="582" 
d="M356 18h214v-18h-300v223h-157l-88 -223h-21l267 677h280v-18h-195v-309h157v-18h-157v-314zM120 241h150v382z" />
    <glyph glyph-name="Ccedilla" unicode="&#xc7;" horiz-adv-x="640" 
d="M410 -65q27 0 47.5 -18.5t20.5 -51.5q0 -38 -25 -58.5t-61 -20.5q-40 0 -67 23l12 15q20 -17 41 -17q19 0 31.5 15t12.5 42q0 48 -34 48q-8 0 -17 -3l-12 10l27 68q-70 2 -131.5 23.5t-110.5 63.5t-77.5 110.5t-28.5 156.5q0 111 53 192t136.5 119.5t184.5 38.5
q111 0 193 -46l-7 -11q-76 38 -179 38q-135 0 -209 -86.5t-74 -246.5t73.5 -246t192.5 -86q127 0 221 70l9 -10q-101 -76 -226 -80l-25 -58q13 6 29 6z" />
    <glyph glyph-name="Egrave" unicode="&#xc8;" horiz-adv-x="378" 
d="M151 873q57 -85 142 -133l-5 -14q-104 20 -184 74zM365 18v-18h-300v677h281v-18h-195v-306h157v-18h-157v-317h214z" />
    <glyph glyph-name="Eacute" unicode="&#xc9;" horiz-adv-x="378" 
d="M330 784q-85 -43 -180 -56l-6 16q93 50 143 114zM365 18v-18h-300v677h281v-18h-195v-306h157v-18h-157v-317h214z" />
    <glyph glyph-name="Ecircumflex" unicode="&#xca;" horiz-adv-x="378" 
d="M178 853h71l97 -118l-13 -13l-120 85l-119 -84l-12 12zM365 18v-18h-300v677h281v-18h-195v-306h157v-18h-157v-317h214z" />
    <glyph glyph-name="Edieresis" unicode="&#xcb;" horiz-adv-x="378" 
d="M90 794q0 21 14.5 35.5t33.5 14.5q21 0 34.5 -14.5t13.5 -35.5q0 -20 -13.5 -34.5t-34.5 -14.5q-19 0 -33.5 15t-14.5 34zM235 794q0 21 14.5 35.5t34.5 14.5q19 0 33 -14.5t14 -35.5q0 -20 -14 -34.5t-33 -14.5q-20 0 -34.5 14.5t-14.5 34.5zM365 18v-18h-300v677h281
v-18h-195v-306h157v-18h-157v-317h214z" />
    <glyph glyph-name="Igrave" unicode="&#xcc;" horiz-adv-x="216" 
d="M48 873q57 -85 142 -133l-5 -14q-104 20 -184 74zM151 0h-86v677h86v-677z" />
    <glyph glyph-name="Iacute" unicode="&#xcd;" horiz-adv-x="216" 
d="M227 784q-85 -43 -180 -56l-6 16q93 50 143 114zM151 0h-86v677h86v-677z" />
    <glyph glyph-name="Icircumflex" unicode="&#xce;" horiz-adv-x="216" 
d="M75 853h71l97 -118l-13 -13l-120 85l-119 -84l-12 12zM151 0h-86v677h86v-677z" />
    <glyph glyph-name="Idieresis" unicode="&#xcf;" horiz-adv-x="216" 
d="M-13 794q0 21 14.5 35.5t33.5 14.5q21 0 34.5 -14.5t13.5 -35.5q0 -20 -13.5 -34.5t-34.5 -14.5q-19 0 -33.5 15t-14.5 34zM132 794q0 21 14.5 35.5t34.5 14.5q19 0 33 -14.5t14 -35.5q0 -20 -14 -34.5t-33 -14.5t-34 14.5t-15 34.5zM151 0h-86v677h86v-677z" />
    <glyph glyph-name="Eth" unicode="&#xd0;" horiz-adv-x="677" 
d="M271 677q367 0 367 -340q0 -161 -99 -249t-285 -88h-189v334h-43v18h43v325h206zM245 18q146 0 220.5 86t74.5 233q0 155 -75 238.5t-218 83.5h-96v-307h151v-18h-151v-316h94z" />
    <glyph glyph-name="Ntilde" unicode="&#xd1;" horiz-adv-x="463" 
d="M173 797q-29 0 -34 -50h-16q0 102 60 102q30 0 73.5 -25t53.5 -25q31 0 35 50h16q0 -102 -61 -102q-26 0 -70.5 25t-56.5 25zM378 677h20v-677h-89l-222 570v-570h-20v614l-25 63h91l245 -624v624z" />
    <glyph glyph-name="Ograve" unicode="&#xd2;" horiz-adv-x="797" 
d="M338 873q57 -85 142 -133l-5 -14q-104 20 -184 74zM399 -13q-161 0 -261 97.5t-100 253.5q0 157 100 255t260 98q159 0 260 -98.5t101 -252.5q0 -156 -101 -254.5t-259 -98.5zM399 3q119 0 191 92t72 243q0 154 -72 245.5t-192 91.5q-119 0 -191 -91.5t-72 -242.5
q0 -153 72 -245.5t192 -92.5z" />
    <glyph glyph-name="Oacute" unicode="&#xd3;" horiz-adv-x="797" 
d="M517 784q-85 -43 -180 -56l-6 16q93 50 143 114zM399 -13q-161 0 -261 97.5t-100 253.5q0 157 100 255t260 98q159 0 260 -98.5t101 -252.5q0 -156 -101 -254.5t-259 -98.5zM399 3q119 0 191 92t72 243q0 154 -72 245.5t-192 91.5q-119 0 -191 -91.5t-72 -242.5
q0 -153 72 -245.5t192 -92.5z" />
    <glyph glyph-name="Ocircumflex" unicode="&#xd4;" horiz-adv-x="797" 
d="M365 853h71l97 -118l-13 -13l-120 85l-119 -84l-12 12zM399 -13q-161 0 -261 97.5t-100 253.5q0 157 100 255t260 98q159 0 260 -98.5t101 -252.5q0 -156 -101 -254.5t-259 -98.5zM399 3q119 0 191 92t72 243q0 154 -72 245.5t-192 91.5q-119 0 -191 -91.5t-72 -242.5
q0 -153 72 -245.5t192 -92.5z" />
    <glyph glyph-name="Otilde" unicode="&#xd5;" horiz-adv-x="797" 
d="M547 849q0 -48 -19.5 -75t-54.5 -27q-33 0 -87 25t-69 25q-21 0 -32 -11t-15 -39h-17q0 48 19 75t55 27q35 0 88 -25t68 -25q41 0 47 50h17zM399 -13q-161 0 -261 97.5t-100 253.5q0 157 100 255t260 98q159 0 260 -98.5t101 -252.5q0 -156 -101 -254.5t-259 -98.5z
M399 3q119 0 191 92t72 243q0 154 -72 245.5t-192 91.5q-119 0 -191 -91.5t-72 -242.5q0 -153 72 -245.5t192 -92.5z" />
    <glyph glyph-name="Odieresis" unicode="&#xd6;" horiz-adv-x="797" 
d="M277 794q0 21 14.5 35.5t33.5 14.5q21 0 34.5 -14.5t13.5 -35.5q0 -20 -13.5 -34.5t-34.5 -14.5q-19 0 -33.5 15t-14.5 34zM422 794q0 21 14.5 35.5t34.5 14.5q19 0 33 -14.5t14 -35.5q0 -20 -14 -34.5t-33 -14.5t-34 14.5t-15 34.5zM399 -13q-161 0 -261 97.5
t-100 253.5q0 157 100 255t260 98q159 0 260 -98.5t101 -252.5q0 -156 -101 -254.5t-259 -98.5zM399 3q119 0 191 92t72 243q0 154 -72 245.5t-192 91.5q-119 0 -191 -91.5t-72 -242.5q0 -153 72 -245.5t192 -92.5z" />
    <glyph glyph-name="multiply" unicode="&#xd7;" horiz-adv-x="359" 
d="M313 507l-122 -167l122 -167l-15 -11l-118 162l-119 -162l-15 11l122 167l-122 167l14 11l119 -163l119 162z" />
    <glyph glyph-name="Oslash" unicode="&#xd8;" horiz-adv-x="797" 
d="M652 599q107 -101 107 -259q0 -156 -101 -254.5t-259 -98.5q-140 0 -237 76l-71 -77l-13 13l70 76q-110 99 -110 263q0 157 100 255t260 98q142 0 238 -79l73 80l15 -14zM135 341q0 -132 54 -220l410 450q-72 104 -201 104q-119 0 -191 -91.5t-72 -242.5zM399 3
q119 0 191 92t72 243q0 130 -52 216l-410 -449q72 -102 199 -102z" />
    <glyph glyph-name="Ugrave" unicode="&#xd9;" horiz-adv-x="458" 
d="M183 873q57 -85 142 -133l-5 -14q-104 20 -184 74zM64 677h86v-489q0 -93 25.5 -135t83.5 -42q53 0 86 36.5t33 143.5v486h20v-484q0 -111 -39.5 -158.5t-113.5 -47.5q-95 0 -138 50.5t-43 172.5v467z" />
    <glyph glyph-name="Uacute" unicode="&#xda;" horiz-adv-x="458" 
d="M362 784q-85 -43 -180 -56l-6 16q93 50 143 114zM64 677h86v-489q0 -93 25.5 -135t83.5 -42q53 0 86 36.5t33 143.5v486h20v-484q0 -111 -39.5 -158.5t-113.5 -47.5q-95 0 -138 50.5t-43 172.5v467z" />
    <glyph glyph-name="Ucircumflex" unicode="&#xdb;" horiz-adv-x="458" 
d="M210 853h71l97 -118l-13 -13l-120 85l-119 -84l-12 12zM64 677h86v-489q0 -93 25.5 -135t83.5 -42q53 0 86 36.5t33 143.5v486h20v-484q0 -111 -39.5 -158.5t-113.5 -47.5q-95 0 -138 50.5t-43 172.5v467z" />
    <glyph glyph-name="Udieresis" unicode="&#xdc;" horiz-adv-x="458" 
d="M122 794q0 21 14.5 35.5t33.5 14.5q21 0 34.5 -14.5t13.5 -35.5q0 -20 -13.5 -34.5t-34.5 -14.5q-19 0 -33.5 15t-14.5 34zM267 794q0 21 14.5 35.5t34.5 14.5q19 0 33 -14.5t14 -35.5q0 -20 -14 -34.5t-33 -14.5q-20 0 -34.5 14.5t-14.5 34.5zM64 677h86v-489
q0 -93 25.5 -135t83.5 -42q53 0 86 36.5t33 143.5v486h20v-484q0 -111 -39.5 -158.5t-113.5 -47.5q-95 0 -138 50.5t-43 172.5v467z" />
    <glyph glyph-name="Yacute" unicode="&#xdd;" horiz-adv-x="397" 
d="M328 784q-85 -43 -180 -56l-6 16q93 50 143 114zM373 677l-130 -377v-300h-86v289l-135 388h92l118 -349l120 349h21z" />
    <glyph glyph-name="Thorn" unicode="&#xde;" horiz-adv-x="411" 
d="M151 153v-153h-86v677h86v-125h37q96 0 142.5 -48t46.5 -148q0 -99 -51 -151t-144 -52h-31zM151 171h29q49 0 75.5 45t26.5 132q0 186 -99 186h-32v-363z" />
    <glyph glyph-name="germandbls" unicode="&#xdf;" horiz-adv-x="497" 
d="M289 464q107 -112 145 -174.5t38 -129.5q0 -82 -48.5 -127t-116.5 -45q-54 0 -103 30l7 14q47 -25 91 -25q43 0 71.5 25t28.5 76q0 60 -41.5 122t-138.5 159v18l170 241q-48 20 -97 20q-149 0 -149 -210v-458h-85v458q0 116 63 172.5t154 56.5q71 0 131 -30v-17z" />
    <glyph glyph-name="agrave" unicode="&#xe0;" horiz-adv-x="411" 
d="M287 740l-5 -14q-104 20 -184 74l47 73q57 -85 142 -133zM301 0l-51 231h-159l-52 -231h-21l143 632l-10 45h89l150 -677h-89zM95 249h151l-75 338z" />
    <glyph glyph-name="aacute" unicode="&#xe1;" horiz-adv-x="411" 
d="M324 784q-85 -43 -180 -56l-6 16q93 50 143 114zM301 0l-51 231h-159l-52 -231h-21l143 632l-10 45h89l150 -677h-89zM95 249h151l-75 338z" />
    <glyph glyph-name="acircumflex" unicode="&#xe2;" horiz-adv-x="411" 
d="M207 807l-119 -84l-12 12l96 118h71l97 -118l-13 -13zM301 0l-51 231h-159l-52 -231h-21l143 632l-10 45h89l150 -677h-89zM95 249h151l-75 338z" />
    <glyph glyph-name="atilde" unicode="&#xe3;" horiz-adv-x="411" 
d="M140 797q-29 0 -34 -50h-16q0 102 60 102q30 0 73.5 -25t53.5 -25q31 0 35 50h16q0 -102 -61 -102q-27 0 -71 25t-56 25zM301 0l-51 231h-159l-52 -231h-21l143 632l-10 45h89l150 -677h-89zM95 249h151l-75 338z" />
    <glyph glyph-name="adieresis" unicode="&#xe4;" horiz-adv-x="411" 
d="M132 745q-19 0 -33.5 15t-14.5 34q0 21 14.5 35.5t33.5 14.5q21 0 34.5 -14.5t13.5 -35.5q0 -20 -13.5 -34.5t-34.5 -14.5zM278 745q-20 0 -34.5 14.5t-14.5 34.5q0 21 14.5 35.5t34.5 14.5q19 0 33 -14.5t14 -35.5q0 -20 -14 -34.5t-33 -14.5zM301 0l-51 231h-159
l-52 -231h-21l143 632l-10 45h89l150 -677h-89zM95 249h151l-75 338z" />
    <glyph glyph-name="aring" unicode="&#xe5;" horiz-adv-x="411" 
d="M205 721q-35 0 -55.5 20.5t-20.5 55.5q0 34 21 55.5t55 21.5t54.5 -21t20.5 -56q0 -33 -21 -54.5t-54 -21.5zM205 857q-24 0 -38.5 -16.5t-14.5 -43.5t14.5 -43.5t38.5 -16.5q23 0 37.5 16.5t14.5 43.5t-14.5 43.5t-37.5 16.5zM301 0l-51 231h-159l-52 -231h-21l143 632
l-10 45h89l150 -677h-89zM95 249h151l-75 338z" />
    <glyph glyph-name="ae" unicode="&#xe6;" horiz-adv-x="582" 
d="M356 18h214v-18h-300v223h-157l-88 -223h-21l267 677h280v-18h-195v-309h157v-18h-157v-314zM120 241h150v382z" />
    <glyph glyph-name="ccedilla" unicode="&#xe7;" horiz-adv-x="423" 
d="M410 67q-59 -76 -139 -80l-25 -56q14 6 29 6q27 0 47.5 -18.5t20.5 -51.5q0 -38 -25 -58.5t-61 -20.5q-40 0 -67 23l12 15q20 -17 41 -17q19 0 31.5 15t12.5 42q0 48 -34 48q-8 0 -17 -3l-12 10l26 66q-94 5 -151.5 93.5t-57.5 253.5q0 97 21 169.5t56 111.5t73.5 57
t80.5 18q68 0 119 -42l-9 -11q-44 35 -100 35q-146 0 -146 -342q0 -167 35.5 -244t106.5 -77q73 0 121 66z" />
    <glyph glyph-name="egrave" unicode="&#xe8;" horiz-adv-x="378" 
d="M151 873q57 -85 142 -133l-5 -14q-104 20 -184 74zM365 18v-18h-300v677h281v-18h-195v-306h157v-18h-157v-317h214z" />
    <glyph glyph-name="eacute" unicode="&#xe9;" horiz-adv-x="378" 
d="M330 784q-85 -43 -180 -56l-6 16q93 50 143 114zM365 18v-18h-300v677h281v-18h-195v-306h157v-18h-157v-317h214z" />
    <glyph glyph-name="ecircumflex" unicode="&#xea;" horiz-adv-x="378" 
d="M178 853h71l97 -118l-13 -13l-120 85l-119 -84l-12 12zM365 18v-18h-300v677h281v-18h-195v-306h157v-18h-157v-317h214z" />
    <glyph glyph-name="edieresis" unicode="&#xeb;" horiz-adv-x="378" 
d="M90 794q0 21 14.5 35.5t33.5 14.5q21 0 34.5 -14.5t13.5 -35.5q0 -20 -13.5 -34.5t-34.5 -14.5q-19 0 -33.5 15t-14.5 34zM235 794q0 21 14.5 35.5t34.5 14.5q19 0 33 -14.5t14 -35.5q0 -20 -14 -34.5t-33 -14.5q-20 0 -34.5 14.5t-14.5 34.5zM365 18v-18h-300v677h281
v-18h-195v-306h157v-18h-157v-317h214z" />
    <glyph glyph-name="igrave" unicode="&#xec;" horiz-adv-x="216" 
d="M48 873q57 -85 142 -133l-5 -14q-104 20 -184 74zM151 0h-86v677h86v-677z" />
    <glyph glyph-name="iacute" unicode="&#xed;" horiz-adv-x="216" 
d="M227 784q-85 -43 -180 -56l-6 16q93 50 143 114zM151 0h-86v677h86v-677z" />
    <glyph glyph-name="icircumflex" unicode="&#xee;" horiz-adv-x="216" 
d="M75 853h71l97 -118l-13 -13l-120 85l-119 -84l-12 12zM151 0h-86v677h86v-677z" />
    <glyph glyph-name="idieresis" unicode="&#xef;" horiz-adv-x="216" 
d="M-13 794q0 21 14.5 35.5t33.5 14.5q21 0 34.5 -14.5t13.5 -35.5q0 -20 -13.5 -34.5t-34.5 -14.5q-19 0 -33.5 15t-14.5 34zM132 794q0 21 14.5 35.5t34.5 14.5q19 0 33 -14.5t14 -35.5q0 -20 -14 -34.5t-33 -14.5t-34 14.5t-15 34.5zM151 0h-86v677h86v-677z" />
    <glyph glyph-name="eth" unicode="&#xf0;" horiz-adv-x="493" 
d="M199 677q130 0 191 -83t61 -252q0 -342 -254 -342h-132v334h-35v18h35v325h134zM192 18q165 0 165 318q0 323 -164 323h-42v-307h104v-18h-104v-316h41z" />
    <glyph glyph-name="ntilde" unicode="&#xf1;" horiz-adv-x="463" 
d="M173 797q-29 0 -34 -50h-16q0 102 60 102q30 0 73.5 -25t53.5 -25q31 0 35 50h16q0 -102 -61 -102q-26 0 -70.5 25t-56.5 25zM378 677h20v-677h-89l-222 570v-570h-20v614l-25 63h91l245 -624v624z" />
    <glyph glyph-name="ograve" unicode="&#xf2;" horiz-adv-x="508" 
d="M191 873q57 -85 142 -133l-5 -14q-104 20 -184 74zM256 691q103 0 156 -89t53 -262q0 -174 -53.5 -263.5t-157.5 -89.5t-158 89t-54 262q0 174 54.5 263.5t159.5 89.5zM253 673q-117 0 -117 -332q0 -336 118 -336q117 0 117 332q0 336 -118 336z" />
    <glyph glyph-name="oacute" unicode="&#xf3;" horiz-adv-x="508" 
d="M370 784q-85 -43 -180 -56l-6 16q93 50 143 114zM256 691q103 0 156 -89t53 -262q0 -174 -53.5 -263.5t-157.5 -89.5t-158 89t-54 262q0 174 54.5 263.5t159.5 89.5zM253 673q-117 0 -117 -332q0 -336 118 -336q117 0 117 332q0 336 -118 336z" />
    <glyph glyph-name="ocircumflex" unicode="&#xf4;" horiz-adv-x="508" 
d="M218 853h71l97 -118l-13 -13l-120 85l-119 -84l-12 12zM256 691q103 0 156 -89t53 -262q0 -174 -53.5 -263.5t-157.5 -89.5t-158 89t-54 262q0 174 54.5 263.5t159.5 89.5zM253 673q-117 0 -117 -332q0 -336 118 -336q117 0 117 332q0 336 -118 336z" />
    <glyph glyph-name="otilde" unicode="&#xf5;" horiz-adv-x="508" 
d="M374 849q0 -102 -61 -102q-27 0 -71 25t-56 25q-29 0 -34 -50h-16q0 102 60 102q30 0 73.5 -25t53.5 -25q31 0 35 50h16zM256 691q103 0 156 -89t53 -262q0 -174 -53.5 -263.5t-157.5 -89.5t-158 89t-54 262q0 174 54.5 263.5t159.5 89.5zM253 673q-117 0 -117 -332
q0 -336 118 -336q117 0 117 332q0 336 -118 336z" />
    <glyph glyph-name="odieresis" unicode="&#xf6;" horiz-adv-x="508" 
d="M130 794q0 21 14.5 35.5t33.5 14.5q21 0 34.5 -14.5t13.5 -35.5q0 -20 -13.5 -34.5t-34.5 -14.5q-19 0 -33.5 15t-14.5 34zM275 794q0 21 14.5 35.5t34.5 14.5q19 0 33 -14.5t14 -35.5q0 -20 -14 -34.5t-33 -14.5q-20 0 -34.5 14.5t-14.5 34.5zM256 691q103 0 156 -89
t53 -262q0 -174 -53.5 -263.5t-157.5 -89.5t-158 89t-54 262q0 174 54.5 263.5t159.5 89.5zM253 673q-117 0 -117 -332q0 -336 118 -336q117 0 117 332q0 336 -118 336z" />
    <glyph glyph-name="divide" unicode="&#xf7;" horiz-adv-x="395" 
d="M197 576q22 0 37 -15.5t15 -37.5t-15 -37t-37 -15q-21 0 -36 15.5t-15 36.5q0 22 14.5 37.5t36.5 15.5zM350 355v-18h-305v18h305zM197 221q22 0 37.5 -15.5t15.5 -37.5t-15 -37t-38 -15q-22 0 -36 15t-14 37t14 37.5t36 15.5z" />
    <glyph glyph-name="oslash" unicode="&#xf8;" horiz-adv-x="508" 
d="M468 680l-51 -87q48 -88 48 -253q0 -174 -53.5 -263.5t-157.5 -89.5q-95 0 -148 74l-44 -75l-17 11l49 83q-52 88 -52 258q0 174 54.5 263.5t159.5 89.5q97 0 149 -79l47 79zM253 673q-117 0 -117 -332q0 -99 11 -173l209 364q-27 141 -103 141zM254 5q117 0 117 332
q0 98 -10 164l-208 -364q27 -132 101 -132z" />
    <glyph glyph-name="ugrave" unicode="&#xf9;" horiz-adv-x="458" 
d="M183 873q57 -85 142 -133l-5 -14q-104 20 -184 74zM64 677h86v-489q0 -93 25.5 -135t83.5 -42q53 0 86 36.5t33 143.5v486h20v-484q0 -111 -39.5 -158.5t-113.5 -47.5q-95 0 -138 50.5t-43 172.5v467z" />
    <glyph glyph-name="uacute" unicode="&#xfa;" horiz-adv-x="458" 
d="M362 784q-85 -43 -180 -56l-6 16q93 50 143 114zM64 677h86v-489q0 -93 25.5 -135t83.5 -42q53 0 86 36.5t33 143.5v486h20v-484q0 -111 -39.5 -158.5t-113.5 -47.5q-95 0 -138 50.5t-43 172.5v467z" />
    <glyph glyph-name="ucircumflex" unicode="&#xfb;" horiz-adv-x="458" 
d="M210 853h71l97 -118l-13 -13l-120 85l-119 -84l-12 12zM64 677h86v-489q0 -93 25.5 -135t83.5 -42q53 0 86 36.5t33 143.5v486h20v-484q0 -111 -39.5 -158.5t-113.5 -47.5q-95 0 -138 50.5t-43 172.5v467z" />
    <glyph glyph-name="udieresis" unicode="&#xfc;" horiz-adv-x="458" 
d="M122 794q0 21 14.5 35.5t33.5 14.5q21 0 34.5 -14.5t13.5 -35.5q0 -20 -13.5 -34.5t-34.5 -14.5q-19 0 -33.5 15t-14.5 34zM267 794q0 21 14.5 35.5t34.5 14.5q19 0 33 -14.5t14 -35.5q0 -20 -14 -34.5t-33 -14.5q-20 0 -34.5 14.5t-14.5 34.5zM64 677h86v-489
q0 -93 25.5 -135t83.5 -42q53 0 86 36.5t33 143.5v486h20v-484q0 -111 -39.5 -158.5t-113.5 -47.5q-95 0 -138 50.5t-43 172.5v467z" />
    <glyph glyph-name="yacute" unicode="&#xfd;" horiz-adv-x="397" 
d="M328 784q-85 -43 -180 -56l-6 16q93 50 143 114zM373 677l-130 -377v-300h-86v289l-135 388h92l118 -349l120 349h21z" />
    <glyph glyph-name="thorn" unicode="&#xfe;" horiz-adv-x="411" 
d="M151 153v-153h-86v677h86v-125h37q96 0 142.5 -48t46.5 -148q0 -99 -51 -151t-144 -52h-31zM151 171h29q49 0 75.5 45t26.5 132q0 186 -99 186h-32v-363z" />
    <glyph glyph-name="ydieresis" unicode="&#xff;" horiz-adv-x="397" 
d="M136 745q-19 0 -33.5 15t-14.5 34q0 21 14.5 35.5t33.5 14.5q21 0 34.5 -14.5t13.5 -35.5q0 -20 -13.5 -34.5t-34.5 -14.5zM282 745q-20 0 -34.5 14.5t-14.5 34.5q0 21 14.5 35.5t34.5 14.5q19 0 33 -14.5t14 -35.5q0 -20 -14 -34.5t-33 -14.5zM373 677l-130 -377v-300
h-86v289l-135 388h92l118 -349l120 349h21z" />
    <glyph glyph-name="Amacron" unicode="&#x100;" horiz-adv-x="411" 
d="M320 786v-18h-231v18h231zM301 0l-51 231h-159l-52 -231h-21l143 632l-10 45h89l150 -677h-89zM95 249h151l-75 338z" />
    <glyph glyph-name="amacron" unicode="&#x101;" horiz-adv-x="411" 
d="M320 786v-18h-231v18h231zM301 0l-51 231h-159l-52 -231h-21l143 632l-10 45h89l150 -677h-89zM95 249h151l-75 338z" />
    <glyph glyph-name="Abreve" unicode="&#x102;" horiz-adv-x="411" 
d="M203 721q-53 0 -78.5 40.5t-26.5 100.5h14q6 -41 30.5 -63t60.5 -22q35 0 60.5 23.5t29.5 61.5h15q-1 -59 -27 -100t-78 -41zM301 0l-51 231h-159l-52 -231h-21l143 632l-10 45h89l150 -677h-89zM95 249h151l-75 338z" />
    <glyph glyph-name="abreve" unicode="&#x103;" horiz-adv-x="411" 
d="M203 721q-53 0 -78.5 40.5t-26.5 100.5h14q6 -41 30.5 -63t60.5 -22q35 0 60.5 23.5t29.5 61.5h15q-1 -59 -27 -100t-78 -41zM301 0l-51 231h-159l-52 -231h-21l143 632l-10 45h89l150 -677h-89zM95 249h151l-75 338z" />
    <glyph glyph-name="Aogonek" unicode="&#x104;" horiz-adv-x="411" 
d="M282 -181q26 0 49 16l9 -13q-36 -27 -84 -27q-39 0 -65 20t-26 57q0 47 39.5 79.5t96.5 49.5l-51 230h-159l-52 -231h-21l143 632l-10 45h89l150 -677h-65q-44 -22 -68.5 -55.5t-24.5 -69.5q0 -27 14 -41.5t36 -14.5zM95 249h151l-75 338z" />
    <glyph glyph-name="aogonek" unicode="&#x105;" horiz-adv-x="411" 
d="M282 -181q26 0 49 16l9 -13q-36 -27 -84 -27q-39 0 -65 20t-26 57q0 47 39.5 79.5t96.5 49.5l-51 230h-159l-52 -231h-21l143 632l-10 45h89l150 -677h-65q-44 -22 -68.5 -55.5t-24.5 -69.5q0 -27 14 -41.5t36 -14.5zM95 249h151l-75 338z" />
    <glyph glyph-name="Cacute" unicode="&#x106;" horiz-adv-x="640" 
d="M514 784q-85 -43 -180 -56l-6 16q93 50 143 114zM632 67q-106 -80 -237 -80q-71 0 -134 21t-113.5 63t-80 111.5t-29.5 158.5q0 111 53 192t136.5 119.5t184.5 38.5q111 0 193 -46l-7 -11q-76 38 -179 38q-135 0 -209 -86.5t-74 -246.5t73.5 -246t192.5 -86q127 0 221 70
z" />
    <glyph glyph-name="cacute" unicode="&#x107;" horiz-adv-x="423" 
d="M379 784q-85 -43 -180 -56l-6 16q93 50 143 114zM410 67q-63 -80 -148 -80q-99 0 -160 88.5t-61 258.5q0 97 21 169.5t56 111.5t73.5 57t80.5 18q68 0 119 -42l-9 -11q-44 35 -100 35q-146 0 -146 -342q0 -167 35.5 -244t106.5 -77q73 0 121 66z" />
    <glyph glyph-name="Ccircumflex" unicode="&#x108;" horiz-adv-x="640" 
d="M362 853h71l97 -118l-13 -13l-120 85l-119 -84l-12 12zM632 67q-106 -80 -237 -80q-71 0 -134 21t-113.5 63t-80 111.5t-29.5 158.5q0 111 53 192t136.5 119.5t184.5 38.5q111 0 193 -46l-7 -11q-76 38 -179 38q-135 0 -209 -86.5t-74 -246.5t73.5 -246t192.5 -86
q127 0 221 70z" />
    <glyph glyph-name="ccircumflex" unicode="&#x109;" horiz-adv-x="423" 
d="M227 853h71l97 -118l-13 -13l-120 85l-119 -84l-12 12zM410 67q-63 -80 -148 -80q-99 0 -160 88.5t-61 258.5q0 97 21 169.5t56 111.5t73.5 57t80.5 18q68 0 119 -42l-9 -11q-44 35 -100 35q-146 0 -146 -342q0 -167 35.5 -244t106.5 -77q73 0 121 66z" />
    <glyph glyph-name="Cdotaccent" unicode="&#x10a;" horiz-adv-x="640" 
d="M343 792q0 22 15.5 37.5t36.5 15.5t35.5 -15.5t14.5 -37.5q0 -21 -14.5 -36t-35.5 -15t-36.5 15t-15.5 36zM632 67q-106 -80 -237 -80q-71 0 -134 21t-113.5 63t-80 111.5t-29.5 158.5q0 111 53 192t136.5 119.5t184.5 38.5q111 0 193 -46l-7 -11q-76 38 -179 38
q-135 0 -209 -86.5t-74 -246.5t73.5 -246t192.5 -86q127 0 221 70z" />
    <glyph glyph-name="cdotaccent" unicode="&#x10b;" horiz-adv-x="423" 
d="M208 792q0 22 15.5 37.5t36.5 15.5t35.5 -15.5t14.5 -37.5q0 -21 -14.5 -36t-35.5 -15t-36.5 15t-15.5 36zM410 67q-63 -80 -148 -80q-99 0 -160 88.5t-61 258.5q0 97 21 169.5t56 111.5t73.5 57t80.5 18q68 0 119 -42l-9 -11q-44 35 -100 35q-146 0 -146 -342
q0 -167 35.5 -244t106.5 -77q73 0 121 66z" />
    <glyph glyph-name="Ccaron" unicode="&#x10c;" horiz-adv-x="640" 
d="M428 725h-65l-98 122l14 14l116 -91l117 90l14 -13zM632 67q-106 -80 -237 -80q-71 0 -134 21t-113.5 63t-80 111.5t-29.5 158.5q0 111 53 192t136.5 119.5t184.5 38.5q111 0 193 -46l-7 -11q-76 38 -179 38q-135 0 -209 -86.5t-74 -246.5t73.5 -246t192.5 -86
q127 0 221 70z" />
    <glyph glyph-name="ccaron" unicode="&#x10d;" horiz-adv-x="423" 
d="M293 725h-65l-98 122l14 14l116 -91l117 90l14 -13zM410 67q-63 -80 -148 -80q-99 0 -160 88.5t-61 258.5q0 97 21 169.5t56 111.5t73.5 57t80.5 18q68 0 119 -42l-9 -11q-44 35 -100 35q-146 0 -146 -342q0 -167 35.5 -244t106.5 -77q73 0 121 66z" />
    <glyph glyph-name="Dcaron" unicode="&#x10e;" horiz-adv-x="677" 
d="M333 725h-65l-98 122l14 14l116 -91l117 90l14 -13zM65 677h206q367 0 367 -340q0 -161 -99 -249t-285 -88h-189v677zM151 18h94q146 0 220.5 86t74.5 233q0 155 -75 238.5t-218 83.5h-96v-641z" />
    <glyph glyph-name="dcaron" unicode="&#x10f;" horiz-adv-x="493" 
d="M250 725h-65l-98 122l14 14l116 -91l117 90l14 -13zM65 677h134q130 0 191 -83t61 -252q0 -342 -254 -342h-132v677zM151 18h41q165 0 165 318q0 323 -164 323h-42v-641z" />
    <glyph glyph-name="Dcroat" unicode="&#x110;" horiz-adv-x="677" 
d="M271 677q367 0 367 -340q0 -161 -99 -249t-285 -88h-189v334h-43v18h43v325h206zM245 18q146 0 220.5 86t74.5 233q0 155 -75 238.5t-218 83.5h-96v-307h151v-18h-151v-316h94z" />
    <glyph glyph-name="dcroat" unicode="&#x111;" horiz-adv-x="493" 
d="M199 677q130 0 191 -83t61 -252q0 -342 -254 -342h-132v334h-35v18h35v325h134zM192 18q165 0 165 318q0 323 -164 323h-42v-307h104v-18h-104v-316h41z" />
    <glyph glyph-name="Emacron" unicode="&#x112;" horiz-adv-x="378" 
d="M95 768v18h231v-18h-231zM365 18v-18h-300v677h281v-18h-195v-306h157v-18h-157v-317h214z" />
    <glyph glyph-name="emacron" unicode="&#x113;" horiz-adv-x="378" 
d="M95 768v18h231v-18h-231zM365 18v-18h-300v677h281v-18h-195v-306h157v-18h-157v-317h214z" />
    <glyph glyph-name="Ebreve" unicode="&#x114;" horiz-adv-x="378" 
d="M209 721q-53 0 -78.5 40.5t-26.5 100.5h14q6 -41 30.5 -63t60.5 -22q35 0 60.5 23.5t29.5 61.5h15q-1 -59 -27 -100t-78 -41zM365 18v-18h-300v677h281v-18h-195v-306h157v-18h-157v-317h214z" />
    <glyph glyph-name="ebreve" unicode="&#x115;" horiz-adv-x="378" 
d="M209 721q-53 0 -78.5 40.5t-26.5 100.5h14q6 -41 30.5 -63t60.5 -22q35 0 60.5 23.5t29.5 61.5h15q-1 -59 -27 -100t-78 -41zM365 18v-18h-300v677h281v-18h-195v-306h157v-18h-157v-317h214z" />
    <glyph glyph-name="Edotaccent" unicode="&#x116;" horiz-adv-x="378" 
d="M159 792q0 22 15.5 37.5t36.5 15.5t35.5 -15.5t14.5 -37.5q0 -21 -14.5 -36t-35.5 -15t-36.5 15t-15.5 36zM365 18v-18h-300v677h281v-18h-195v-306h157v-18h-157v-317h214z" />
    <glyph glyph-name="edotaccent" unicode="&#x117;" horiz-adv-x="378" 
d="M159 792q0 22 15.5 37.5t36.5 15.5t35.5 -15.5t14.5 -37.5q0 -21 -14.5 -36t-35.5 -15t-36.5 15t-15.5 36zM365 18v-18h-300v677h281v-18h-195v-306h157v-18h-157v-317h214z" />
    <glyph glyph-name="Eogonek" unicode="&#x118;" horiz-adv-x="378" 
d="M371 -165l9 -13q-36 -27 -84 -27q-39 0 -65 20t-26 57q0 47 38 78.5t93 49.5h-271v677h281v-18h-195v-306h157v-18h-157v-317h214v-18q-44 -22 -68.5 -55.5t-24.5 -69.5q0 -27 14 -41.5t36 -14.5q26 0 49 16z" />
    <glyph glyph-name="eogonek" unicode="&#x119;" horiz-adv-x="378" 
d="M371 -165l9 -13q-36 -27 -84 -27q-39 0 -65 20t-26 57q0 47 38 78.5t93 49.5h-271v677h281v-18h-195v-306h157v-18h-157v-317h214v-18q-44 -22 -68.5 -55.5t-24.5 -69.5q0 -27 14 -41.5t36 -14.5q26 0 49 16z" />
    <glyph glyph-name="Ecaron" unicode="&#x11a;" horiz-adv-x="378" 
d="M244 725h-65l-98 122l14 14l116 -91l117 90l14 -13zM365 18v-18h-300v677h281v-18h-195v-306h157v-18h-157v-317h214z" />
    <glyph glyph-name="ecaron" unicode="&#x11b;" horiz-adv-x="378" 
d="M244 725h-65l-98 122l14 14l116 -91l117 90l14 -13zM365 18v-18h-300v677h281v-18h-195v-306h157v-18h-157v-317h214z" />
    <glyph glyph-name="Gcircumflex" unicode="&#x11c;" horiz-adv-x="683" 
d="M402 807l-119 -84l-12 12l96 118h71l97 -118l-13 -13zM447 334h195v-296q-113 -51 -238 -51q-162 0 -264 88t-102 255q0 89 31.5 159.5t85.5 113.5t121.5 65.5t143.5 22.5q118 0 199 -46l-6 -11q-76 38 -183 38q-136 0 -215.5 -87.5t-79.5 -249.5q0 -156 75.5 -243
t202.5 -87q80 0 143 21v290h-109v18z" />
    <glyph glyph-name="gcircumflex" unicode="&#x11d;" horiz-adv-x="469" 
d="M272 721q-53 0 -78.5 40.5t-26.5 100.5h14q6 -41 30.5 -63t60.5 -22q35 0 60.5 23.5t29.5 61.5h15q-1 -59 -27 -100t-78 -41zM263 334h165v-318q-82 -30 -150 -30q-237 0 -237 342q0 105 21.5 180t59.5 113t78 54t88 16q65 0 123 -35l-8 -11q-50 26 -102 26
q-27 0 -48.5 -7t-44.5 -28.5t-38 -57.5t-25 -98t-10 -145q0 -329 158 -329q23 0 49 6v304h-79v18z" />
    <glyph glyph-name="Gbreve" unicode="&#x11e;" horiz-adv-x="683" 
d="M397 731q-65 0 -97 41t-32 100h18q5 -41 34.5 -63t76.5 -22q46 0 76 23t34 62h18q0 -59 -32 -100t-96 -41zM447 334h195v-296q-113 -51 -238 -51q-162 0 -264 88t-102 255q0 89 31.5 159.5t85.5 113.5t121.5 65.5t143.5 22.5q118 0 199 -46l-6 -11q-76 38 -183 38
q-136 0 -215.5 -87.5t-79.5 -249.5q0 -156 75.5 -243t202.5 -87q80 0 143 21v290h-109v18z" />
    <glyph glyph-name="gbreve" unicode="&#x11f;" horiz-adv-x="469" 
d="M272 721q-53 0 -78.5 40.5t-26.5 100.5h14q6 -41 30.5 -63t60.5 -22q35 0 60.5 23.5t29.5 61.5h15q-1 -59 -27 -100t-78 -41zM263 334h165v-318q-82 -30 -150 -30q-237 0 -237 342q0 105 21.5 180t59.5 113t78 54t88 16q65 0 123 -35l-8 -11q-50 26 -102 26
q-27 0 -48.5 -7t-44.5 -28.5t-38 -57.5t-25 -98t-10 -145q0 -329 158 -329q23 0 49 6v304h-79v18z" />
    <glyph glyph-name="Gdotaccent" unicode="&#x120;" horiz-adv-x="683" 
d="M400 741q-21 0 -36.5 15t-15.5 36q0 22 15.5 37.5t36.5 15.5t35.5 -15.5t14.5 -37.5q0 -21 -14.5 -36t-35.5 -15zM447 334h195v-296q-113 -51 -238 -51q-162 0 -264 88t-102 255q0 89 31.5 159.5t85.5 113.5t121.5 65.5t143.5 22.5q118 0 199 -46l-6 -11q-76 38 -183 38
q-136 0 -215.5 -87.5t-79.5 -249.5q0 -156 75.5 -243t202.5 -87q80 0 143 21v290h-109v18z" />
    <glyph glyph-name="gdotaccent" unicode="&#x121;" horiz-adv-x="469" 
d="M274 741q-21 0 -36.5 15t-15.5 36q0 22 15.5 37.5t36.5 15.5t35.5 -15.5t14.5 -37.5q0 -21 -14.5 -36t-35.5 -15zM263 334h165v-318q-82 -30 -150 -30q-237 0 -237 342q0 105 21.5 180t59.5 113t78 54t88 16q65 0 123 -35l-8 -11q-50 26 -102 26q-27 0 -48.5 -7
t-44.5 -28.5t-38 -57.5t-25 -98t-10 -145q0 -329 158 -329q23 0 49 6v304h-79v18z" />
    <glyph glyph-name="Gcommaaccent" unicode="&#x122;" horiz-adv-x="683" 
d="M447 334h195v-296q-113 -51 -238 -51q-162 0 -264 88t-102 255q0 89 31.5 159.5t85.5 113.5t121.5 65.5t143.5 22.5q118 0 199 -46l-6 -11q-76 38 -183 38q-136 0 -215.5 -87.5t-79.5 -249.5q0 -156 75.5 -243t202.5 -87q80 0 143 21v290h-109v18zM410 -53q41 0 41 -48
q0 -27 -18.5 -59.5t-46.5 -56.5l-12 12q27 32 27 65q0 37 -36 43q6 44 45 44z" />
    <glyph glyph-name="gcommaaccent" unicode="&#x123;" horiz-adv-x="469" 
d="M263 334h165v-318q-82 -30 -150 -30q-237 0 -237 342q0 105 21.5 180t59.5 113t78 54t88 16q65 0 123 -35l-8 -11q-50 26 -102 26q-27 0 -48.5 -7t-44.5 -28.5t-38 -57.5t-25 -98t-10 -145q0 -329 158 -329q23 0 49 6v304h-79v18zM286 -45q41 0 41 -48q0 -27 -18.5 -59.5
t-46.5 -56.5l-12 12q27 32 27 65q0 37 -36 43q6 44 45 44z" />
    <glyph glyph-name="Hcircumflex" unicode="&#x124;" horiz-adv-x="494" 
d="M214 853h71l97 -118l-13 -13l-120 85l-119 -84l-12 12zM343 342h-192v-342h-86v677h86v-317h192v317h86v-677h-86v342z" />
    <glyph glyph-name="hcircumflex" unicode="&#x125;" horiz-adv-x="494" 
d="M214 853h71l97 -118l-13 -13l-120 85l-119 -84l-12 12zM343 342h-192v-342h-86v677h86v-317h192v317h86v-677h-86v342z" />
    <glyph glyph-name="Hbar" unicode="&#x126;" horiz-adv-x="503" 
d="M496 507v-16h-63v-491h-86v328h-191v-328h-86v491h-63v16h63v170h86v-170h191v170h86v-170h63zM347 346v145h-191v-145h191z" />
    <glyph glyph-name="hbar" unicode="&#x127;" horiz-adv-x="503" 
d="M496 507v-16h-63v-491h-86v328h-191v-328h-86v491h-63v16h63v170h86v-170h191v170h86v-170h63zM347 346v145h-191v-145h191z" />
    <glyph glyph-name="Itilde" unicode="&#x128;" horiz-adv-x="216" 
d="M231 849q0 -102 -61 -102q-26 0 -70.5 25t-56.5 25q-29 0 -34 -50h-16q0 102 60 102q30 0 73.5 -25t53.5 -25q31 0 35 50h16zM151 0h-86v677h86v-677z" />
    <glyph glyph-name="itilde" unicode="&#x129;" horiz-adv-x="216" 
d="M231 849q0 -102 -61 -102q-26 0 -70.5 25t-56.5 25q-29 0 -34 -50h-16q0 102 60 102q30 0 73.5 -25t53.5 -25q31 0 35 50h16zM151 0h-86v677h86v-677z" />
    <glyph glyph-name="Imacron" unicode="&#x12a;" horiz-adv-x="216" 
d="M-8 768v18h231v-18h-231zM151 0h-86v677h86v-677z" />
    <glyph glyph-name="imacron" unicode="&#x12b;" horiz-adv-x="216" 
d="M-8 768v18h231v-18h-231zM151 0h-86v677h86v-677z" />
    <glyph glyph-name="Ibreve" unicode="&#x12c;" horiz-adv-x="216" 
d="M106 721q-53 0 -78.5 40.5t-26.5 100.5h14q6 -41 30.5 -63t60.5 -22q35 0 60.5 23.5t29.5 61.5h15q-1 -59 -27 -100t-78 -41zM151 0h-86v677h86v-677z" />
    <glyph glyph-name="ibreve" unicode="&#x12d;" horiz-adv-x="216" 
d="M106 721q-53 0 -78.5 40.5t-26.5 100.5h14q6 -41 30.5 -63t60.5 -22q35 0 60.5 23.5t29.5 61.5h15q-1 -59 -27 -100t-78 -41zM151 0h-86v677h86v-677z" />
    <glyph glyph-name="Iogonek" unicode="&#x12e;" horiz-adv-x="216" 
d="M155 -165l9 -13q-36 -27 -84 -27q-39 0 -65 20t-26 57q0 47 38 78.5t93 49.5h-55v677h86v-677h-2q-44 -22 -68.5 -55.5t-24.5 -69.5q0 -27 14 -41.5t36 -14.5q26 0 49 16z" />
    <glyph glyph-name="iogonek" unicode="&#x12f;" horiz-adv-x="216" 
d="M155 -165l9 -13q-36 -27 -84 -27q-39 0 -65 20t-26 57q0 47 38 78.5t93 49.5h-55v677h86v-677h-2q-44 -22 -68.5 -55.5t-24.5 -69.5q0 -27 14 -41.5t36 -14.5q26 0 49 16z" />
    <glyph glyph-name="Idotaccent" unicode="&#x130;" horiz-adv-x="216" 
d="M56 792q0 22 15.5 37.5t36.5 15.5t35.5 -15.5t14.5 -37.5q0 -21 -14.5 -36t-35.5 -15t-36.5 15t-15.5 36zM151 0h-86v677h86v-677z" />
    <glyph glyph-name="dotlessi" unicode="&#x131;" horiz-adv-x="216" 
d="M151 0h-86v677h86v-677z" />
    <glyph glyph-name="IJ" unicode="&#x132;" horiz-adv-x="517" 
d="M151 0h-86v677h86v-677zM368 677h86v-551q0 -49 -23.5 -82.5t-58.5 -45.5t-75 -6.5t-72 28.5l10 14q28 -19 58 -23t52.5 14.5t22.5 61.5v590z" />
    <glyph glyph-name="ij" unicode="&#x133;" horiz-adv-x="517" 
d="M151 0h-86v677h86v-677zM368 677h86v-551q0 -49 -23.5 -82.5t-58.5 -45.5t-75 -6.5t-72 28.5l10 14q28 -19 58 -23t52.5 14.5t22.5 61.5v590z" />
    <glyph glyph-name="Jcircumflex" unicode="&#x134;" horiz-adv-x="301" 
d="M156 853h71l97 -118l-13 -13l-120 85l-119 -84l-12 12zM152 677h86v-551q0 -49 -23.5 -82.5t-58.5 -45.5t-75 -6.5t-72 28.5l10 14q28 -19 58 -23t52.5 14.5t22.5 61.5v590z" />
    <glyph glyph-name="jcircumflex" unicode="&#x135;" horiz-adv-x="301" 
d="M156 853h71l97 -118l-13 -13l-120 85l-119 -84l-12 12zM152 677h86v-551q0 -49 -23.5 -82.5t-58.5 -45.5t-75 -6.5t-72 28.5l10 14q28 -19 58 -23t52.5 14.5t22.5 61.5v590z" />
    <glyph glyph-name="Kcommaaccent" unicode="&#x136;" horiz-adv-x="428" 
d="M65 0v677h86v-677h-86zM238 409l190 -409h-100l-152 340l198 337h21zM227 -45q41 0 41 -48q0 -27 -18.5 -59.5t-46.5 -56.5l-12 12q27 32 27 65q0 37 -36 43q6 44 45 44z" />
    <glyph glyph-name="kcommaaccent" unicode="&#x137;" horiz-adv-x="428" 
d="M65 0v677h86v-677h-86zM238 409l190 -409h-100l-152 340l198 337h21zM227 -45q41 0 41 -48q0 -27 -18.5 -59.5t-46.5 -56.5l-12 12q27 32 27 65q0 37 -36 43q6 44 45 44z" />
    <glyph glyph-name="Lacute" unicode="&#x139;" horiz-adv-x="372" 
d="M260 784q-85 -43 -180 -56l-6 16q93 50 143 114zM361 18v-18h-296v677h86v-659h210z" />
    <glyph glyph-name="lacute" unicode="&#x13a;" horiz-adv-x="372" 
d="M260 784q-85 -43 -180 -56l-6 16q93 50 143 114zM361 18v-18h-296v677h86v-659h210z" />
    <glyph glyph-name="Lcommaaccent" unicode="&#x13b;" horiz-adv-x="372" 
d="M361 18v-18h-296v677h86v-659h210zM146 -197q27 32 27 65q0 37 -36 43q6 44 45 44q41 0 41 -48q0 -27 -18.5 -59.5t-46.5 -56.5z" />
    <glyph glyph-name="lcommaaccent" unicode="&#x13c;" horiz-adv-x="372" 
d="M361 18v-18h-296v677h86v-659h210zM146 -197q27 32 27 65q0 37 -36 43q6 44 45 44q41 0 41 -48q0 -27 -18.5 -59.5t-46.5 -56.5z" />
    <glyph glyph-name="Lcaron" unicode="&#x13d;" horiz-adv-x="396" 
d="M272 520q21 39 21 87q0 37 -14 70l72 24q8 -21 8 -49q0 -40 -20.5 -79.5t-52.5 -65.5zM361 18v-18h-296v677h86v-659h210z" />
    <glyph glyph-name="lcaron" unicode="&#x13e;" horiz-adv-x="396" 
d="M272 520q21 39 21 87q0 37 -14 70l72 24q8 -21 8 -49q0 -40 -20.5 -79.5t-52.5 -65.5zM361 18v-18h-296v677h86v-659h210z" />
    <glyph glyph-name="Ldot" unicode="&#x13f;" horiz-adv-x="391" 
d="M361 18v-18h-296v677h86v-659h210zM301 301q-23 0 -38.5 16.5t-15.5 40.5q0 23 16 39.5t38 16.5q23 0 39 -16t16 -40q0 -25 -15.5 -41t-39.5 -16z" />
    <glyph glyph-name="ldot" unicode="&#x140;" horiz-adv-x="391" 
d="M361 18v-18h-296v677h86v-659h210zM301 301q-23 0 -38.5 16.5t-15.5 40.5q0 23 16 39.5t38 16.5q23 0 39 -16t16 -40q0 -25 -15.5 -41t-39.5 -16z" />
    <glyph glyph-name="Lslash" unicode="&#x141;" horiz-adv-x="372" 
d="M151 18h210v-18h-296v288l-55 -40l-10 15l65 48v366h86v-314l97 71l10 -15l-107 -78v-323z" />
    <glyph glyph-name="lslash" unicode="&#x142;" horiz-adv-x="372" 
d="M151 18h210v-18h-296v288l-55 -40l-10 15l65 48v366h86v-314l97 71l10 -15l-107 -78v-323z" />
    <glyph glyph-name="Nacute" unicode="&#x143;" horiz-adv-x="463" 
d="M357 784q-85 -43 -180 -56l-6 16q93 50 143 114zM378 677h20v-677h-89l-222 570v-570h-20v614l-25 63h91l245 -624v624z" />
    <glyph glyph-name="nacute" unicode="&#x144;" horiz-adv-x="463" 
d="M357 784q-85 -43 -180 -56l-6 16q93 50 143 114zM378 677h20v-677h-89l-222 570v-570h-20v614l-25 63h91l245 -624v624z" />
    <glyph glyph-name="Ncommaaccent" unicode="&#x145;" horiz-adv-x="463" 
d="M378 677h20v-677h-89l-222 570v-570h-20v614l-25 63h91l245 -624v624zM227 -45q41 0 41 -48q0 -27 -18.5 -59.5t-46.5 -56.5l-12 12q27 32 27 65q0 37 -36 43q6 44 45 44z" />
    <glyph glyph-name="ncommaaccent" unicode="&#x146;" horiz-adv-x="463" 
d="M378 677h20v-677h-89l-222 570v-570h-20v614l-25 63h91l245 -624v624zM227 -45q41 0 41 -48q0 -27 -18.5 -59.5t-46.5 -56.5l-12 12q27 32 27 65q0 37 -36 43q6 44 45 44z" />
    <glyph glyph-name="Ncaron" unicode="&#x147;" horiz-adv-x="463" 
d="M271 725h-65l-98 122l14 14l116 -91l117 90l14 -13zM378 677h20v-677h-89l-222 570v-570h-20v614l-25 63h91l245 -624v624z" />
    <glyph glyph-name="ncaron" unicode="&#x148;" horiz-adv-x="463" 
d="M271 725h-65l-98 122l14 14l116 -91l117 90l14 -13zM378 677h20v-677h-89l-222 570v-570h-20v614l-25 63h91l245 -624v624z" />
    <glyph glyph-name="Omacron" unicode="&#x14c;" horiz-adv-x="797" 
d="M282 768v18h231v-18h-231zM399 -13q-161 0 -261 97.5t-100 253.5q0 157 100 255t260 98q159 0 260 -98.5t101 -252.5q0 -156 -101 -254.5t-259 -98.5zM399 3q119 0 191 92t72 243q0 154 -72 245.5t-192 91.5q-119 0 -191 -91.5t-72 -242.5q0 -153 72 -245.5t192 -92.5z
" />
    <glyph glyph-name="omacron" unicode="&#x14d;" horiz-adv-x="508" 
d="M135 768v18h231v-18h-231zM256 691q103 0 156 -89t53 -262q0 -174 -53.5 -263.5t-157.5 -89.5t-158 89t-54 262q0 174 54.5 263.5t159.5 89.5zM253 673q-117 0 -117 -332q0 -336 118 -336q117 0 117 332q0 336 -118 336z" />
    <glyph glyph-name="Obreve" unicode="&#x14e;" horiz-adv-x="797" 
d="M396 721q-53 0 -78.5 40.5t-26.5 100.5h14q6 -41 30.5 -63t60.5 -22q35 0 60.5 23.5t29.5 61.5h15q-1 -59 -27 -100t-78 -41zM399 -13q-161 0 -261 97.5t-100 253.5q0 157 100 255t260 98q159 0 260 -98.5t101 -252.5q0 -156 -101 -254.5t-259 -98.5zM399 3q119 0 191 92
t72 243q0 154 -72 245.5t-192 91.5q-119 0 -191 -91.5t-72 -242.5q0 -153 72 -245.5t192 -92.5z" />
    <glyph glyph-name="obreve" unicode="&#x14f;" horiz-adv-x="508" 
d="M249 721q-53 0 -78.5 40.5t-26.5 100.5h14q6 -41 30.5 -63t60.5 -22q35 0 60.5 23.5t29.5 61.5h15q-1 -59 -27 -100t-78 -41zM256 691q103 0 156 -89t53 -262q0 -174 -53.5 -263.5t-157.5 -89.5t-158 89t-54 262q0 174 54.5 263.5t159.5 89.5zM253 673q-117 0 -117 -332
q0 -336 118 -336q117 0 117 332q0 336 -118 336z" />
    <glyph glyph-name="Ohungarumlaut" unicode="&#x150;" horiz-adv-x="797" 
d="M338 737l-13 11l74 148l65 -39zM435 726l-13 13l115 121l44 -59zM399 -13q-161 0 -261 97.5t-100 253.5q0 157 100 255t260 98q159 0 260 -98.5t101 -252.5q0 -156 -101 -254.5t-259 -98.5zM399 3q119 0 191 92t72 243q0 154 -72 245.5t-192 91.5q-119 0 -191 -91.5
t-72 -242.5q0 -153 72 -245.5t192 -92.5z" />
    <glyph glyph-name="ohungarumlaut" unicode="&#x151;" horiz-adv-x="508" 
d="M191 737l-13 11l74 148l65 -39zM288 726l-13 13l115 121l44 -59zM256 691q103 0 156 -89t53 -262q0 -174 -53.5 -263.5t-157.5 -89.5t-158 89t-54 262q0 174 54.5 263.5t159.5 89.5zM253 673q-117 0 -117 -332q0 -336 118 -336q117 0 117 332q0 336 -118 336z" />
    <glyph glyph-name="OE" unicode="&#x152;" horiz-adv-x="975" 
d="M749 18h214v-18h-300v103q-100 -116 -264 -116q-161 0 -261 97.5t-100 253.5q0 157 100 255t260 98q165 0 265 -116v102h281v-18h-195v-306h157v-18h-157v-317zM399 3q119 0 191 92t72 243q0 154 -72 245.5t-192 91.5q-119 0 -191 -91.5t-72 -242.5q0 -153 72 -245.5
t192 -92.5z" />
    <glyph glyph-name="oe" unicode="&#x153;" horiz-adv-x="685" 
d="M458 18h214v-18h-300v44q-46 -57 -118 -57q-104 0 -158 89t-54 262q0 174 54.5 263.5t159.5 89.5q69 0 116 -56v42h281v-18h-195v-306h157v-18h-157v-317zM254 5q117 0 117 332q0 336 -118 336q-117 0 -117 -332q0 -336 118 -336z" />
    <glyph glyph-name="Racute" unicode="&#x154;" horiz-adv-x="432" 
d="M324 784q-85 -43 -180 -56l-6 16q93 50 143 114zM357 217l56 -217h-92l-50 226q-27 110 -90 110h-30v-336h-86v677h143q87 0 130 -44.5t43 -115.5q0 -77 -42.5 -121t-109.5 -52q100 -17 128 -127zM151 659v-305h40q45 0 71 38.5t26 117.5q0 71 -21 110t-75 39h-41z" />
    <glyph glyph-name="racute" unicode="&#x155;" horiz-adv-x="432" 
d="M324 784q-85 -43 -180 -56l-6 16q93 50 143 114zM357 217l56 -217h-92l-50 226q-27 110 -90 110h-30v-336h-86v677h143q87 0 130 -44.5t43 -115.5q0 -77 -42.5 -121t-109.5 -52q100 -17 128 -127zM151 659v-305h40q45 0 71 38.5t26 117.5q0 71 -21 110t-75 39h-41z" />
    <glyph glyph-name="Rcommaaccent" unicode="&#x156;" horiz-adv-x="432" 
d="M357 217l56 -217h-92l-50 226q-27 110 -90 110h-30v-336h-86v677h143q87 0 130 -44.5t43 -115.5q0 -77 -42.5 -121t-109.5 -52q100 -17 128 -127zM151 659v-305h40q45 0 71 38.5t26 117.5q0 71 -21 110t-75 39h-41zM217 -45q41 0 41 -48q0 -27 -18.5 -59.5t-46.5 -56.5
l-12 12q27 32 27 65q0 37 -36 43q6 44 45 44z" />
    <glyph glyph-name="rcommaaccent" unicode="&#x157;" horiz-adv-x="432" 
d="M357 217l56 -217h-92l-50 226q-27 110 -90 110h-30v-336h-86v677h143q87 0 130 -44.5t43 -115.5q0 -77 -42.5 -121t-109.5 -52q100 -17 128 -127zM151 659v-305h40q45 0 71 38.5t26 117.5q0 71 -21 110t-75 39h-41zM217 -45q41 0 41 -48q0 -27 -18.5 -59.5t-46.5 -56.5
l-12 12q27 32 27 65q0 37 -36 43q6 44 45 44z" />
    <glyph glyph-name="Rcaron" unicode="&#x158;" horiz-adv-x="432" 
d="M238 725h-65l-98 122l14 14l116 -91l117 90l14 -13zM357 217l56 -217h-92l-50 226q-27 110 -90 110h-30v-336h-86v677h143q87 0 130 -44.5t43 -115.5q0 -77 -42.5 -121t-109.5 -52q100 -17 128 -127zM151 659v-305h40q45 0 71 38.5t26 117.5q0 71 -21 110t-75 39h-41z
" />
    <glyph glyph-name="rcaron" unicode="&#x159;" horiz-adv-x="432" 
d="M238 725h-65l-98 122l14 14l116 -91l117 90l14 -13zM357 217l56 -217h-92l-50 226q-27 110 -90 110h-30v-336h-86v677h143q87 0 130 -44.5t43 -115.5q0 -77 -42.5 -121t-109.5 -52q100 -17 128 -127zM151 659v-305h40q45 0 71 38.5t26 117.5q0 71 -21 110t-75 39h-41z
" />
    <glyph glyph-name="Sacute" unicode="&#x15a;" horiz-adv-x="364" 
d="M311 784q-85 -43 -180 -56l-6 16q93 50 143 114zM310 661l-7 -15q-50 23 -97 22q-46 0 -72.5 -27t-26.5 -75q0 -51 25 -91t82 -97q72 -72 97 -115.5t25 -104.5q0 -78 -45.5 -123t-128.5 -45q-73 0 -129 35l8 14q54 -31 120 -31q103 0 104 101q0 50 -22.5 89.5t-84.5 98.5
q-63 61 -92.5 110.5t-29.5 113.5q0 76 46.5 120.5t121.5 44.5q58 0 106 -25z" />
    <glyph glyph-name="sacute" unicode="&#x15b;" horiz-adv-x="364" 
d="M311 784q-85 -43 -180 -56l-6 16q93 50 143 114zM310 661l-7 -15q-50 23 -97 22q-46 0 -72.5 -27t-26.5 -75q0 -51 25 -91t82 -97q72 -72 97 -115.5t25 -104.5q0 -78 -45.5 -123t-128.5 -45q-73 0 -129 35l8 14q54 -31 120 -31q103 0 104 101q0 50 -22.5 89.5t-84.5 98.5
q-63 61 -92.5 110.5t-29.5 113.5q0 76 46.5 120.5t121.5 44.5q58 0 106 -25z" />
    <glyph glyph-name="Scircumflex" unicode="&#x15c;" horiz-adv-x="364" 
d="M159 853h71l97 -118l-13 -13l-120 85l-119 -84l-12 12zM310 661l-7 -15q-50 23 -97 22q-46 0 -72.5 -27t-26.5 -75q0 -51 25 -91t82 -97q72 -72 97 -115.5t25 -104.5q0 -78 -45.5 -123t-128.5 -45q-73 0 -129 35l8 14q54 -31 120 -31q103 0 104 101q0 50 -22.5 89.5
t-84.5 98.5q-63 61 -92.5 110.5t-29.5 113.5q0 76 46.5 120.5t121.5 44.5q58 0 106 -25z" />
    <glyph glyph-name="scircumflex" unicode="&#x15d;" horiz-adv-x="364" 
d="M159 853h71l97 -118l-13 -13l-120 85l-119 -84l-12 12zM310 661l-7 -15q-50 23 -97 22q-46 0 -72.5 -27t-26.5 -75q0 -51 25 -91t82 -97q72 -72 97 -115.5t25 -104.5q0 -78 -45.5 -123t-128.5 -45q-73 0 -129 35l8 14q54 -31 120 -31q103 0 104 101q0 50 -22.5 89.5
t-84.5 98.5q-63 61 -92.5 110.5t-29.5 113.5q0 76 46.5 120.5t121.5 44.5q58 0 106 -25z" />
    <glyph glyph-name="Scedilla" unicode="&#x15e;" horiz-adv-x="364" 
d="M336 158q0 -72 -39.5 -116.5t-112.5 -50.5l-25 -57q13 6 29 6q27 0 47.5 -18.5t20.5 -51.5q0 -38 -25 -58.5t-61 -20.5q-40 0 -67 23l12 15q20 -17 41 -17q19 0 31.5 15t12.5 42q0 48 -34 48q-8 0 -17 -3l-12 10l26 66h-1q-73 0 -129 35l8 14q54 -31 120 -31
q103 0 104 101q0 50 -22.5 89.5t-84.5 98.5q-63 61 -92.5 110.5t-29.5 113.5q0 76 46.5 120.5t121.5 44.5q58 0 106 -25l-7 -15q-50 23 -97 22q-46 0 -72.5 -27t-26.5 -75q0 -51 25 -91t82 -97q72 -72 97 -115.5t25 -104.5z" />
    <glyph glyph-name="scedilla" unicode="&#x15f;" horiz-adv-x="364" 
d="M336 158q0 -72 -39.5 -116.5t-112.5 -50.5l-25 -57q13 6 29 6q27 0 47.5 -18.5t20.5 -51.5q0 -38 -25 -58.5t-61 -20.5q-40 0 -67 23l12 15q20 -17 41 -17q19 0 31.5 15t12.5 42q0 48 -34 48q-8 0 -17 -3l-12 10l26 66h-1q-73 0 -129 35l8 14q54 -31 120 -31
q103 0 104 101q0 50 -22.5 89.5t-84.5 98.5q-63 61 -92.5 110.5t-29.5 113.5q0 76 46.5 120.5t121.5 44.5q58 0 106 -25l-7 -15q-50 23 -97 22q-46 0 -72.5 -27t-26.5 -75q0 -51 25 -91t82 -97q72 -72 97 -115.5t25 -104.5z" />
    <glyph glyph-name="Scaron" unicode="&#x160;" horiz-adv-x="364" 
d="M225 725h-65l-98 122l14 14l116 -91l117 90l14 -13zM310 661l-7 -15q-50 23 -97 22q-46 0 -72.5 -27t-26.5 -75q0 -51 25 -91t82 -97q72 -72 97 -115.5t25 -104.5q0 -78 -45.5 -123t-128.5 -45q-73 0 -129 35l8 14q54 -31 120 -31q103 0 104 101q0 50 -22.5 89.5
t-84.5 98.5q-63 61 -92.5 110.5t-29.5 113.5q0 76 46.5 120.5t121.5 44.5q58 0 106 -25z" />
    <glyph glyph-name="scaron" unicode="&#x161;" horiz-adv-x="364" 
d="M225 725h-65l-98 122l14 14l116 -91l117 90l14 -13zM310 661l-7 -15q-50 23 -97 22q-46 0 -72.5 -27t-26.5 -75q0 -51 25 -91t82 -97q72 -72 97 -115.5t25 -104.5q0 -78 -45.5 -123t-128.5 -45q-73 0 -129 35l8 14q54 -31 120 -31q103 0 104 101q0 50 -22.5 89.5
t-84.5 98.5q-63 61 -92.5 110.5t-29.5 113.5q0 76 46.5 120.5t121.5 44.5q58 0 106 -25z" />
    <glyph glyph-name="uni0162" unicode="&#x162;" horiz-adv-x="404" 
d="M245 0h-27l-28 -63q14 6 29 6q27 0 47.5 -18.5t20.5 -51.5q0 -38 -25 -58.5t-61 -20.5q-40 0 -67 23l12 15q20 -17 41 -17q19 0 31.5 15t12.5 42q0 48 -34 48q-8 0 -17 -3l-12 10l29 73h-38v659h-149v18h384v-18h-149v-659z" />
    <glyph glyph-name="uni0163" unicode="&#x163;" horiz-adv-x="404" 
d="M245 0h-27l-28 -63q14 6 29 6q27 0 47.5 -18.5t20.5 -51.5q0 -38 -25 -58.5t-61 -20.5q-40 0 -67 23l12 15q20 -17 41 -17q19 0 31.5 15t12.5 42q0 48 -34 48q-8 0 -17 -3l-12 10l29 73h-38v659h-149v18h384v-18h-149v-659z" />
    <glyph glyph-name="Tcaron" unicode="&#x164;" horiz-adv-x="404" 
d="M235 725h-65l-98 122l14 14l116 -91l117 90l14 -13zM10 677h384v-18h-149v-659h-86v659h-149v18z" />
    <glyph glyph-name="tcaron" unicode="&#x165;" horiz-adv-x="404" 
d="M235 725h-65l-98 122l14 14l116 -91l117 90l14 -13zM10 677h384v-18h-149v-659h-86v659h-149v18z" />
    <glyph glyph-name="Tbar" unicode="&#x166;" horiz-adv-x="418" 
d="M401 659h-149v-289h102v-18h-102v-352h-86v352h-101v18h101v289h-149v18h384v-18z" />
    <glyph glyph-name="tbar" unicode="&#x167;" horiz-adv-x="418" 
d="M401 659h-149v-289h102v-18h-102v-352h-86v352h-101v18h101v289h-149v18h384v-18z" />
    <glyph glyph-name="Utilde" unicode="&#x168;" horiz-adv-x="458" 
d="M366 849q0 -102 -61 -102q-27 0 -71 25t-56 25q-29 0 -34 -50h-16q0 102 60 102q30 0 73.5 -25t53.5 -25q31 0 35 50h16zM64 677h86v-489q0 -93 25.5 -135t83.5 -42q53 0 86 36.5t33 143.5v486h20v-484q0 -111 -39.5 -158.5t-113.5 -47.5q-95 0 -138 50.5t-43 172.5v467z
" />
    <glyph glyph-name="utilde" unicode="&#x169;" horiz-adv-x="458" 
d="M366 849q0 -102 -61 -102q-27 0 -71 25t-56 25q-29 0 -34 -50h-16q0 102 60 102q30 0 73.5 -25t53.5 -25q31 0 35 50h16zM64 677h86v-489q0 -93 25.5 -135t83.5 -42q53 0 86 36.5t33 143.5v486h20v-484q0 -111 -39.5 -158.5t-113.5 -47.5q-95 0 -138 50.5t-43 172.5v467z
" />
    <glyph glyph-name="Umacron" unicode="&#x16a;" horiz-adv-x="458" 
d="M127 768v18h231v-18h-231zM64 677h86v-489q0 -93 25.5 -135t83.5 -42q53 0 86 36.5t33 143.5v486h20v-484q0 -111 -39.5 -158.5t-113.5 -47.5q-95 0 -138 50.5t-43 172.5v467z" />
    <glyph glyph-name="umacron" unicode="&#x16b;" horiz-adv-x="458" 
d="M127 768v18h231v-18h-231zM64 677h86v-489q0 -93 25.5 -135t83.5 -42q53 0 86 36.5t33 143.5v486h20v-484q0 -111 -39.5 -158.5t-113.5 -47.5q-95 0 -138 50.5t-43 172.5v467z" />
    <glyph glyph-name="Ubreve" unicode="&#x16c;" horiz-adv-x="458" 
d="M241 721q-53 0 -78.5 40.5t-26.5 100.5h14q6 -41 30.5 -63t60.5 -22q35 0 60.5 23.5t29.5 61.5h15q-1 -59 -27 -100t-78 -41zM64 677h86v-489q0 -93 25.5 -135t83.5 -42q53 0 86 36.5t33 143.5v486h20v-484q0 -111 -39.5 -158.5t-113.5 -47.5q-95 0 -138 50.5t-43 172.5
v467z" />
    <glyph glyph-name="ubreve" unicode="&#x16d;" horiz-adv-x="458" 
d="M241 721q-53 0 -78.5 40.5t-26.5 100.5h14q6 -41 30.5 -63t60.5 -22q35 0 60.5 23.5t29.5 61.5h15q-1 -59 -27 -100t-78 -41zM64 677h86v-489q0 -93 25.5 -135t83.5 -42q53 0 86 36.5t33 143.5v486h20v-484q0 -111 -39.5 -158.5t-113.5 -47.5q-95 0 -138 50.5t-43 172.5
v467z" />
    <glyph glyph-name="Uring" unicode="&#x16e;" horiz-adv-x="458" 
d="M243 874q34 0 54.5 -21t20.5 -56q0 -33 -21 -54.5t-54 -21.5q-35 0 -55.5 20.5t-20.5 55.5q0 34 21 55.5t55 21.5zM295 797q0 27 -14.5 43.5t-37.5 16.5q-24 0 -38.5 -16.5t-14.5 -43.5t14.5 -43.5t38.5 -16.5q23 0 37.5 16.5t14.5 43.5zM64 677h86v-489q0 -93 25.5 -135
t83.5 -42q53 0 86 36.5t33 143.5v486h20v-484q0 -111 -39.5 -158.5t-113.5 -47.5q-95 0 -138 50.5t-43 172.5v467z" />
    <glyph glyph-name="uring" unicode="&#x16f;" horiz-adv-x="458" 
d="M243 874q34 0 54.5 -21t20.5 -56q0 -33 -21 -54.5t-54 -21.5q-35 0 -55.5 20.5t-20.5 55.5q0 34 21 55.5t55 21.5zM295 797q0 27 -14.5 43.5t-37.5 16.5q-24 0 -38.5 -16.5t-14.5 -43.5t14.5 -43.5t38.5 -16.5q23 0 37.5 16.5t14.5 43.5zM64 677h86v-489q0 -93 25.5 -135
t83.5 -42q53 0 86 36.5t33 143.5v486h20v-484q0 -111 -39.5 -158.5t-113.5 -47.5q-95 0 -138 50.5t-43 172.5v467z" />
    <glyph glyph-name="Uhungarumlaut" unicode="&#x170;" horiz-adv-x="458" 
d="M183 737l-13 11l74 148l65 -39zM280 726l-13 13l115 121l44 -59zM64 677h86v-489q0 -93 25.5 -135t83.5 -42q53 0 86 36.5t33 143.5v486h20v-484q0 -111 -39.5 -158.5t-113.5 -47.5q-95 0 -138 50.5t-43 172.5v467z" />
    <glyph glyph-name="uhungarumlaut" unicode="&#x171;" horiz-adv-x="458" 
d="M183 737l-13 11l74 148l65 -39zM280 726l-13 13l115 121l44 -59zM64 677h86v-489q0 -93 25.5 -135t83.5 -42q53 0 86 36.5t33 143.5v486h20v-484q0 -111 -39.5 -158.5t-113.5 -47.5q-95 0 -138 50.5t-43 172.5v467z" />
    <glyph glyph-name="Uogonek" unicode="&#x172;" horiz-adv-x="458" 
d="M378 677h20v-484q0 -171 -102 -200q-70 -45 -70 -111q0 -27 14 -41.5t36 -14.5q26 0 49 16l9 -13q-36 -27 -84 -27q-39 0 -65 20t-26 57q0 65 82 108q-92 1 -134.5 52t-42.5 171v467h86v-489q0 -93 25.5 -135t83.5 -42q53 0 86 36.5t33 143.5v486z" />
    <glyph glyph-name="uogonek" unicode="&#x173;" horiz-adv-x="458" 
d="M378 677h20v-484q0 -171 -102 -200q-70 -45 -70 -111q0 -27 14 -41.5t36 -14.5q26 0 49 16l9 -13q-36 -27 -84 -27q-39 0 -65 20t-26 57q0 65 82 108q-92 1 -134.5 52t-42.5 171v467h86v-489q0 -93 25.5 -135t83.5 -42q53 0 86 36.5t33 143.5v486z" />
    <glyph glyph-name="Wcircumflex" unicode="&#x174;" horiz-adv-x="578" 
d="M308 807l-119 -84l-12 12l96 118h71l97 -118l-13 -13zM530 677h21l-102 -677h-80l-79 448l-82 -448h-80l-104 677h88l89 -604l79 430l-16 92h85l91 -525z" />
    <glyph glyph-name="wcircumflex" unicode="&#x175;" horiz-adv-x="578" 
d="M308 807l-119 -84l-12 12l96 118h71l97 -118l-13 -13zM530 677h21l-102 -677h-80l-79 448l-82 -448h-80l-104 677h88l89 -604l79 430l-16 92h85l91 -525z" />
    <glyph glyph-name="Ycircumflex" unicode="&#x176;" horiz-adv-x="397" 
d="M211 807l-119 -84l-12 12l96 118h71l97 -118l-13 -13zM373 677l-130 -377v-300h-86v289l-135 388h92l118 -349l120 349h21z" />
    <glyph glyph-name="ycircumflex" unicode="&#x177;" horiz-adv-x="397" 
d="M211 807l-119 -84l-12 12l96 118h71l97 -118l-13 -13zM373 677l-130 -377v-300h-86v289l-135 388h92l118 -349l120 349h21z" />
    <glyph glyph-name="Ydieresis" unicode="&#x178;" horiz-adv-x="397" 
d="M136 745q-19 0 -33.5 15t-14.5 34q0 21 14.5 35.5t33.5 14.5q21 0 34.5 -14.5t13.5 -35.5q0 -20 -13.5 -34.5t-34.5 -14.5zM282 745q-20 0 -34.5 14.5t-14.5 34.5q0 21 14.5 35.5t34.5 14.5q19 0 33 -14.5t14 -35.5q0 -20 -14 -34.5t-33 -14.5zM373 677l-130 -377v-300
h-86v289l-135 388h92l118 -349l120 349h21z" />
    <glyph glyph-name="Zacute" unicode="&#x179;" horiz-adv-x="365" 
d="M302 784q-85 -43 -180 -56l-6 16q93 50 143 114zM103 18h241v-18h-326v22l236 637h-221v18h308v-16z" />
    <glyph glyph-name="zacute" unicode="&#x17a;" horiz-adv-x="365" 
d="M302 784q-85 -43 -180 -56l-6 16q93 50 143 114zM103 18h241v-18h-326v22l236 637h-221v18h308v-16z" />
    <glyph glyph-name="Zdotaccent" unicode="&#x17b;" horiz-adv-x="365" 
d="M183 741q-21 0 -36.5 15t-15.5 36q0 22 15.5 37.5t36.5 15.5t35.5 -15.5t14.5 -37.5q0 -21 -14.5 -36t-35.5 -15zM103 18h241v-18h-326v22l236 637h-221v18h308v-16z" />
    <glyph glyph-name="zdotaccent" unicode="&#x17c;" horiz-adv-x="365" 
d="M183 741q-21 0 -36.5 15t-15.5 36q0 22 15.5 37.5t36.5 15.5t35.5 -15.5t14.5 -37.5q0 -21 -14.5 -36t-35.5 -15zM103 18h241v-18h-326v22l236 637h-221v18h308v-16z" />
    <glyph glyph-name="Zcaron" unicode="&#x17d;" horiz-adv-x="365" 
d="M216 725h-65l-98 122l14 14l116 -91l117 90l14 -13zM103 18h241v-18h-326v22l236 637h-221v18h308v-16z" />
    <glyph glyph-name="zcaron" unicode="&#x17e;" horiz-adv-x="365" 
d="M216 725h-65l-98 122l14 14l116 -91l117 90l14 -13zM103 18h241v-18h-326v22l236 637h-221v18h308v-16z" />
    <glyph glyph-name="florin" unicode="&#x192;" horiz-adv-x="316" 
d="M288 364v-18h-91q43 -180 43 -217q0 -71 -41 -104.5t-94 -33.5q-43 0 -78 21l9 14q32 -17 62 -17q64 0 64 70q0 35 -57 267h-65v18h61q-36 153 -36 188q0 70 41.5 104t94.5 34q41 0 77 -21l-8 -14q-32 17 -62 17q-64 0 -64 -70q0 -32 49 -238h95z" />
    <glyph glyph-name="uni01CD" unicode="&#x1cd;" horiz-adv-x="411" 
d="M238 725h-65l-98 122l14 14l116 -91l117 90l14 -13zM301 0l-51 231h-159l-52 -231h-21l143 632l-10 45h89l150 -677h-89zM95 249h151l-75 338z" />
    <glyph glyph-name="uni01CE" unicode="&#x1ce;" horiz-adv-x="411" 
d="M238 725h-65l-98 122l14 14l116 -91l117 90l14 -13zM301 0l-51 231h-159l-52 -231h-21l143 632l-10 45h89l150 -677h-89zM95 249h151l-75 338z" />
    <glyph glyph-name="uni01CF" unicode="&#x1cf;" horiz-adv-x="216" 
d="M141 725h-65l-98 122l14 14l116 -91l117 90l14 -13zM151 0h-86v677h86v-677z" />
    <glyph glyph-name="uni01D0" unicode="&#x1d0;" horiz-adv-x="216" 
d="M141 725h-65l-98 122l14 14l116 -91l117 90l14 -13zM151 0h-86v677h86v-677z" />
    <glyph glyph-name="uni01D1" unicode="&#x1d1;" horiz-adv-x="797" 
d="M431 725h-65l-98 122l14 14l116 -91l117 90l14 -13zM399 -13q-161 0 -261 97.5t-100 253.5q0 157 100 255t260 98q159 0 260 -98.5t101 -252.5q0 -156 -101 -254.5t-259 -98.5zM399 3q119 0 191 92t72 243q0 154 -72 245.5t-192 91.5q-119 0 -191 -91.5t-72 -242.5
q0 -153 72 -245.5t192 -92.5z" />
    <glyph glyph-name="uni01D2" unicode="&#x1d2;" horiz-adv-x="508" 
d="M284 725h-65l-98 122l14 14l116 -91l117 90l14 -13zM256 691q103 0 156 -89t53 -262q0 -174 -53.5 -263.5t-157.5 -89.5t-158 89t-54 262q0 174 54.5 263.5t159.5 89.5zM253 673q-117 0 -117 -332q0 -336 118 -336q117 0 117 332q0 336 -118 336z" />
    <glyph glyph-name="uni01D3" unicode="&#x1d3;" horiz-adv-x="458" 
d="M276 725h-65l-98 122l14 14l116 -91l117 90l14 -13zM64 677h86v-489q0 -93 25.5 -135t83.5 -42q53 0 86 36.5t33 143.5v486h20v-484q0 -111 -39.5 -158.5t-113.5 -47.5q-95 0 -138 50.5t-43 172.5v467z" />
    <glyph glyph-name="uni01D4" unicode="&#x1d4;" horiz-adv-x="458" 
d="M276 725h-65l-98 122l14 14l116 -91l117 90l14 -13zM64 677h86v-489q0 -93 25.5 -135t83.5 -42q53 0 86 36.5t33 143.5v486h20v-484q0 -111 -39.5 -158.5t-113.5 -47.5q-95 0 -138 50.5t-43 172.5v467z" />
    <glyph glyph-name="uni01E2" unicode="&#x1e2;" horiz-adv-x="582" 
d="M528 786v-18h-231v18h231zM356 18h214v-18h-300v223h-157l-88 -223h-21l267 677h280v-18h-195v-309h157v-18h-157v-314zM120 241h150v382z" />
    <glyph glyph-name="uni01E3" unicode="&#x1e3;" horiz-adv-x="582" 
d="M528 786v-18h-231v18h231zM356 18h214v-18h-300v223h-157l-88 -223h-21l267 677h280v-18h-195v-309h157v-18h-157v-314zM120 241h150v382z" />
    <glyph glyph-name="AEacute" unicode="&#x1fc;" horiz-adv-x="582" 
d="M532 784q-85 -43 -180 -56l-6 16q93 50 143 114zM356 18h214v-18h-300v223h-157l-88 -223h-21l267 677h280v-18h-195v-309h157v-18h-157v-314zM120 241h150v382z" />
    <glyph glyph-name="aeacute" unicode="&#x1fd;" horiz-adv-x="582" 
d="M532 784q-85 -43 -180 -56l-6 16q93 50 143 114zM356 18h214v-18h-300v223h-157l-88 -223h-21l267 677h280v-18h-195v-309h157v-18h-157v-314zM120 241h150v382z" />
    <glyph glyph-name="Oslashacute" unicode="&#x1fe;" horiz-adv-x="797" 
d="M517 784q-85 -43 -180 -56l-6 16q93 50 143 114zM652 599q107 -101 107 -259q0 -156 -101 -254.5t-259 -98.5q-140 0 -237 76l-71 -77l-13 13l70 76q-110 99 -110 263q0 157 100 255t260 98q142 0 238 -79l73 80l15 -14zM135 341q0 -132 54 -220l410 450
q-72 104 -201 104q-119 0 -191 -91.5t-72 -242.5zM399 3q119 0 191 92t72 243q0 130 -52 216l-410 -449q72 -102 199 -102z" />
    <glyph glyph-name="oslashacute" unicode="&#x1ff;" horiz-adv-x="508" 
d="M372 784q-85 -43 -180 -56l-6 16q93 50 143 114zM468 680l-51 -87q48 -88 48 -253q0 -174 -53.5 -263.5t-157.5 -89.5q-95 0 -148 74l-44 -75l-17 11l49 83q-52 88 -52 258q0 174 54.5 263.5t159.5 89.5q97 0 149 -79l47 79zM253 673q-117 0 -117 -332q0 -99 11 -173
l209 364q-27 141 -103 141zM254 5q117 0 117 332q0 98 -10 164l-208 -364q27 -132 101 -132z" />
    <glyph glyph-name="Scommaaccent" unicode="&#x218;" horiz-adv-x="364" 
d="M310 661l-7 -15q-50 23 -97 22q-46 0 -72.5 -27t-26.5 -75q0 -51 25 -91t82 -97q72 -72 97 -115.5t25 -104.5q0 -78 -45.5 -123t-128.5 -45q-73 0 -129 35l8 14q54 -31 120 -31q103 0 104 101q0 50 -22.5 89.5t-84.5 98.5q-63 61 -92.5 110.5t-29.5 113.5
q0 76 46.5 120.5t121.5 44.5q58 0 106 -25zM132 -200q27 32 27 65q0 37 -36 43q6 44 45 44q41 0 41 -48q0 -27 -18.5 -59.5t-46.5 -56.5z" />
    <glyph glyph-name="scommaaccent" unicode="&#x219;" horiz-adv-x="364" 
d="M310 661l-7 -15q-50 23 -97 22q-46 0 -72.5 -27t-26.5 -75q0 -51 25 -91t82 -97q72 -72 97 -115.5t25 -104.5q0 -78 -45.5 -123t-128.5 -45q-73 0 -129 35l8 14q54 -31 120 -31q103 0 104 101q0 50 -22.5 89.5t-84.5 98.5q-63 61 -92.5 110.5t-29.5 113.5
q0 76 46.5 120.5t121.5 44.5q58 0 106 -25zM132 -200q27 32 27 65q0 37 -36 43q6 44 45 44q41 0 41 -48q0 -27 -18.5 -59.5t-46.5 -56.5z" />
    <glyph glyph-name="uni021A" unicode="&#x21a;" horiz-adv-x="404" 
d="M10 677h384v-18h-149v-659h-86v659h-149v18zM163 -197q27 32 27 65q0 37 -36 43q6 44 45 44q41 0 41 -48q0 -27 -18.5 -59.5t-46.5 -56.5z" />
    <glyph glyph-name="uni021B" unicode="&#x21b;" horiz-adv-x="404" 
d="M10 677h384v-18h-149v-659h-86v659h-149v18zM163 -197q27 32 27 65q0 37 -36 43q6 44 45 44q41 0 41 -48q0 -27 -18.5 -59.5t-46.5 -56.5z" />
    <glyph glyph-name="uni0232" unicode="&#x232;" horiz-adv-x="397" 
d="M324 786v-18h-231v18h231zM373 677l-130 -377v-300h-86v289l-135 388h92l118 -349l120 349h21z" />
    <glyph glyph-name="uni0233" unicode="&#x233;" horiz-adv-x="397" 
d="M324 786v-18h-231v18h231zM373 677l-130 -377v-300h-86v289l-135 388h92l118 -349l120 349h21z" />
    <glyph glyph-name="ogonek" unicode="&#x2db;" horiz-adv-x="310" 
d="M225 2q-44 -22 -68.5 -55.5t-24.5 -69.5q0 -27 14 -41.5t36 -14.5q26 0 49 16l9 -13q-36 -27 -84 -27q-39 0 -65 20t-26 57q0 48 40.5 80.5t97.5 49.5z" />
    <glyph glyph-name="uni0326" unicode="&#x326;" horiz-adv-x="0" 
d="M-207 -197q27 32 27 65q0 37 -36 43q6 44 45 44q41 0 41 -48q0 -27 -18.5 -59.5t-46.5 -56.5z" />
    <glyph glyph-name="uni0394" unicode="&#x394;" horiz-adv-x="413" 
d="M213 688l173 -661v-27h-358v27l166 661h19zM172 522l-121 -495h237z" />
    <glyph glyph-name="uni03A9" unicode="&#x3a9;" horiz-adv-x="747" 
d="M463 74v-6h189v-68h-209v85q82 25 128.5 99.5t46.5 189.5q0 140 -66.5 220.5t-178.5 80.5q-109 0 -176.5 -80.5t-67.5 -218.5q0 -116 47 -191.5t131 -99.5v-85h-208v68h188v6q-115 23 -182 102.5t-67 196.5q0 141 93.5 229.5t241.5 88.5t242 -88.5t94 -227.5
q0 -117 -66.5 -197t-179.5 -104z" />
    <glyph glyph-name="Wgrave" unicode="&#x1e80;" horiz-adv-x="578" 
d="M388 740l-5 -14q-104 20 -184 74l47 73q57 -85 142 -133zM530 677h21l-102 -677h-80l-79 448l-82 -448h-80l-104 677h88l89 -604l79 430l-16 92h85l91 -525z" />
    <glyph glyph-name="wgrave" unicode="&#x1e81;" horiz-adv-x="578" 
d="M388 740l-5 -14q-104 20 -184 74l47 73q57 -85 142 -133zM530 677h21l-102 -677h-80l-79 448l-82 -448h-80l-104 677h88l89 -604l79 430l-16 92h85l91 -525z" />
    <glyph glyph-name="Wacute" unicode="&#x1e82;" horiz-adv-x="578" 
d="M425 784q-85 -43 -180 -56l-6 16q93 50 143 114zM530 677h21l-102 -677h-80l-79 448l-82 -448h-80l-104 677h88l89 -604l79 430l-16 92h85l91 -525z" />
    <glyph glyph-name="wacute" unicode="&#x1e83;" horiz-adv-x="578" 
d="M425 784q-85 -43 -180 -56l-6 16q93 50 143 114zM530 677h21l-102 -677h-80l-79 448l-82 -448h-80l-104 677h88l89 -604l79 430l-16 92h85l91 -525z" />
    <glyph glyph-name="Wdieresis" unicode="&#x1e84;" horiz-adv-x="578" 
d="M233 745q-19 0 -33.5 15t-14.5 34q0 21 14.5 35.5t33.5 14.5q21 0 34.5 -14.5t13.5 -35.5q0 -20 -13.5 -34.5t-34.5 -14.5zM379 745q-19 0 -34 14.5t-15 34.5q0 21 14.5 35.5t34.5 14.5q19 0 33 -14.5t14 -35.5q0 -20 -14 -34.5t-33 -14.5zM530 677h21l-102 -677h-80
l-79 448l-82 -448h-80l-104 677h88l89 -604l79 430l-16 92h85l91 -525z" />
    <glyph glyph-name="wdieresis" unicode="&#x1e85;" horiz-adv-x="578" 
d="M233 745q-19 0 -33.5 15t-14.5 34q0 21 14.5 35.5t33.5 14.5q21 0 34.5 -14.5t13.5 -35.5q0 -20 -13.5 -34.5t-34.5 -14.5zM379 745q-19 0 -34 14.5t-15 34.5q0 21 14.5 35.5t34.5 14.5q19 0 33 -14.5t14 -35.5q0 -20 -14 -34.5t-33 -14.5zM530 677h21l-102 -677h-80
l-79 448l-82 -448h-80l-104 677h88l89 -604l79 430l-16 92h85l91 -525z" />
    <glyph glyph-name="uni1E9E" unicode="&#x1e9e;" horiz-adv-x="497" 
d="M289 464q107 -112 145 -174.5t38 -129.5q0 -82 -48.5 -127t-116.5 -45q-54 0 -103 30l7 14q47 -25 91 -25q43 0 71.5 25t28.5 76q0 60 -41.5 122t-138.5 159v18l170 241q-48 20 -97 20q-149 0 -149 -210v-458h-85v458q0 116 63 172.5t154 56.5q71 0 131 -30v-17z" />
    <glyph glyph-name="uni1EBC" unicode="&#x1ebc;" horiz-adv-x="378" 
d="M334 849q0 -102 -61 -102q-27 0 -71 25t-56 25q-29 0 -34 -50h-16q0 102 60 102q30 0 73.5 -25t53.5 -25q31 0 35 50h16zM365 18v-18h-300v677h281v-18h-195v-306h157v-18h-157v-317h214z" />
    <glyph glyph-name="uni1EBD" unicode="&#x1ebd;" horiz-adv-x="378" 
d="M334 849q0 -102 -61 -102q-27 0 -71 25t-56 25q-29 0 -34 -50h-16q0 102 60 102q30 0 73.5 -25t53.5 -25q31 0 35 50h16zM365 18v-18h-300v677h281v-18h-195v-306h157v-18h-157v-317h214z" />
    <glyph glyph-name="Ygrave" unicode="&#x1ef2;" horiz-adv-x="397" 
d="M291 740l-5 -14q-104 20 -184 74l47 73q57 -85 142 -133zM373 677l-130 -377v-300h-86v289l-135 388h92l118 -349l120 349h21z" />
    <glyph glyph-name="ygrave" unicode="&#x1ef3;" horiz-adv-x="397" 
d="M291 740l-5 -14q-104 20 -184 74l47 73q57 -85 142 -133zM373 677l-130 -377v-300h-86v289l-135 388h92l118 -349l120 349h21z" />
    <glyph glyph-name="endash" unicode="&#x2013;" horiz-adv-x="525" 
d="M30 354v18h465v-18h-465z" />
    <glyph glyph-name="emdash" unicode="&#x2014;" horiz-adv-x="805" 
d="M33 353v18h739v-18h-739z" />
    <glyph glyph-name="quoteleft" unicode="&#x2018;" horiz-adv-x="190" 
d="M155 717q-52 -52 -52 -100q0 -45 43 -62q0 -24 -15.5 -41t-39.5 -17q-22 0 -38 16.5t-16 43.5q0 55 26 93t78 82z" />
    <glyph glyph-name="quoteright" unicode="&#x2019;" horiz-adv-x="189" 
d="M39 518q52 52 52 100q0 45 -43 62q0 24 15.5 41t39.5 17q22 0 38 -16.5t16 -43.5q0 -55 -26 -93t-78 -82z" />
    <glyph glyph-name="quotesinglbase" unicode="&#x201a;" horiz-adv-x="181" 
d="M25 -118q52 52 52 100q0 45 -43 62q0 24 15.5 41t39.5 17q22 0 38 -16.5t16 -43.5q0 -55 -26 -93t-78 -82z" />
    <glyph glyph-name="quotedblleft" unicode="&#x201c;" horiz-adv-x="329" 
d="M155 717q-52 -52 -52 -100q0 -45 43 -62q0 -24 -15.5 -41t-39.5 -17q-22 0 -38 16.5t-16 43.5q0 55 26 93t78 82zM294 717q-52 -52 -52 -100q0 -45 43 -62q0 -24 -15.5 -41t-39.5 -17q-22 0 -38 16.5t-16 43.5q0 55 26 93t78 82z" />
    <glyph glyph-name="quotedblright" unicode="&#x201d;" horiz-adv-x="329" 
d="M39 518q52 52 52 100q0 45 -43 62q0 24 15.5 41t39.5 17q22 0 38 -16.5t16 -43.5q0 -55 -26 -93t-78 -82zM178 518q52 52 52 100q0 45 -43 62q0 24 15.5 41t39.5 17q22 0 38 -16.5t16 -43.5q0 -55 -26 -93t-78 -82z" />
    <glyph glyph-name="quotedblbase" unicode="&#x201e;" horiz-adv-x="320" 
d="M25 -118q52 52 52 100q0 45 -43 62q0 24 15.5 41t39.5 17q22 0 38 -16.5t16 -43.5q0 -55 -26 -93t-78 -82zM164 -118q52 52 52 100q0 45 -43 62q0 24 15.5 41t39.5 17q22 0 38 -16.5t16 -43.5q0 -55 -26 -93t-78 -82z" />
    <glyph glyph-name="dagger" unicode="&#x2020;" horiz-adv-x="339" 
d="M303 513v-29l-121 4l30 -107q-29 -137 -33 -381h-20q-2 224 -34 381l32 107l-121 -4v29l122 -5l-33 170h87l-31 -170z" />
    <glyph glyph-name="daggerdbl" unicode="&#x2021;" horiz-adv-x="339" 
d="M303 513v-29l-124 5l33 -150l-33 -151l124 5v-28l-124 5l33 -170h-87l34 170l-123 -5v28l123 -5l-34 151l34 150l-123 -5v29l123 -6l-34 171h87l-33 -171z" />
    <glyph glyph-name="bullet" unicode="&#x2022;" horiz-adv-x="322" 
d="M60 363q0 42 29.5 72t71.5 30q41 0 71 -30t30 -72t-30 -72.5t-71 -30.5q-42 0 -71.5 30t-29.5 73z" />
    <glyph glyph-name="ellipsis" unicode="&#x2026;" horiz-adv-x="538" 
d="M90 -11q-23 0 -38.5 16.5t-15.5 40.5q0 23 16 39.5t38 16.5q23 0 39 -16t16 -40q0 -25 -15.5 -41t-39.5 -16zM267 -11q-23 0 -38.5 16.5t-15.5 40.5q0 23 16 39.5t38 16.5q23 0 39 -16t16 -40q0 -25 -15.5 -41t-39.5 -16zM446 -11q-23 0 -38.5 16.5t-15.5 40.5
q0 23 16 39.5t38 16.5q23 0 39 -16t16 -40q0 -25 -15.5 -41t-39.5 -16z" />
    <glyph glyph-name="perthousand" unicode="&#x2030;" horiz-adv-x="645" 
d="M225 534q0 -144 -94 -144q-49 0 -72 35t-23 109q0 75 23 110t72 35q94 0 94 -145zM50 8l312 670l17 -9l-313 -670zM94 534q0 -127 37 -127q19 0 27 28.5t8 98.5t-8 99t-27 29q-37 0 -37 -128zM395 142q0 -145 -94 -145q-49 0 -72 35t-23 110q0 144 95 144q49 0 71.5 -35
t22.5 -109zM619 142q0 -145 -95 -145q-49 0 -71.5 35.5t-22.5 109.5t22.5 109t71.5 35q95 0 95 -144zM264 142q0 -128 37 -128q19 0 27.5 29t8.5 99q0 69 -8.5 98t-27.5 29q-37 0 -37 -127zM488 142q0 -128 36 -128q20 0 28 28.5t8 99.5q0 70 -8 98.5t-28 28.5
q-36 0 -36 -127z" />
    <glyph glyph-name="guilsinglleft" unicode="&#x2039;" horiz-adv-x="215" 
d="M36 343q70 76 107 162l13 -2q-1 -11 -2.5 -22.5t-5.5 -25.5t-7 -22.5t-10 -25t-9.5 -23t-11 -25.5t-10.5 -23q2 -4 10.5 -23t11 -25t9.5 -22t10 -25t7 -22.5t5.5 -25t2.5 -22.5l-13 -2q-37 86 -107 162v12z" />
    <glyph glyph-name="guilsinglright" unicode="&#x203a;" horiz-adv-x="215" 
d="M179 343v-12q-70 -76 -107 -162l-13 2q1 11 2.5 22.5t5.5 25t7 22.5t10 25t9.5 22t11 25t10.5 23q-2 4 -10.5 23t-11 25.5t-9.5 23t-10 25t-7 22.5t-5.5 25.5t-2.5 22.5l13 2q37 -86 107 -162z" />
    <glyph glyph-name="Euro" unicode="&#x20ac;" horiz-adv-x="407" 
d="M372 42l8 -10q-48 -43 -107 -43q-183 0 -198 283h-49v18h49q-1 11 -1 34q0 35 1 51h-49v18h50q10 148 60.5 222.5t129.5 74.5q53 0 102 -29l-8 -13q-41 23 -80 23q-111 -1 -119 -278h152v-18h-153v-39v-46h153v-18h-152q5 -148 34 -206t87 -58q48 0 90 34z" />
    <glyph glyph-name="trademark" unicode="&#x2122;" horiz-adv-x="534" 
d="M23 660v17h196v-17h-72v-288h-52v288h-72zM422 677h53v-305h-51v250l-71 -255h-14l-70 251v-246h-17v305h56l55 -211z" />
    <glyph glyph-name="product" unicode="&#x220f;" horiz-adv-x="517" 
d="M359 659h-201v-759h-86v777h373v-777h-86v759z" />
    <glyph glyph-name="summation" unicode="&#x2211;" horiz-adv-x="381" 
d="M72 -35h283v-65h-328v18l164 326l-166 415v18h320v-18h-236l136 -333v-12z" />
    <glyph glyph-name="minus" unicode="&#x2212;" horiz-adv-x="355" 
d="M25 337v18h305v-18h-305z" />
    <glyph glyph-name="radical" unicode="&#x221a;" horiz-adv-x="430" 
d="M397 762h20l-193 -775h-17l-154 490l-42 -11l-4 12l122 36l115 -375z" />
    <glyph glyph-name="approxequal" unicode="&#x2248;" horiz-adv-x="406" 
d="M338 426l13 -6q-23 -58 -66 -58q-30 0 -84.5 38.5t-80.5 38.5q-32 0 -51 -47l-14 6q23 57 65 57q31 0 85.5 -38.5t79.5 -38.5q33 0 53 48zM338 297l13 -6q-22 -58 -66 -58q-30 0 -84.5 38.5t-80.5 38.5q-32 0 -51 -47l-14 6q23 57 65 57q31 0 85.5 -38.5t79.5 -38.5
q33 0 53 48z" />
    <glyph glyph-name="notequal" unicode="&#x2260;" horiz-adv-x="423" 
d="M364 405h-132l-24 -119h156v-18h-160l-41 -196h-18l41 196h-127v18h131l24 119h-155v18h159l41 196h18l-41 -196h128v-18z" />
    <glyph glyph-name="lessequal" unicode="&#x2264;" horiz-adv-x="380" 
d="M318 510v-20l-245 -137l245 -137v-21l-265 149v18zM53 96v18h265v-18h-265z" />
    <glyph glyph-name="greaterequal" unicode="&#x2265;" horiz-adv-x="380" 
d="M62 510l265 -148v-18l-265 -149v21l245 137l-245 137v20zM62 96v18h265v-18h-265z" />
    <glyph glyph-name="lozenge" unicode="&#x25ca;" horiz-adv-x="331" 
d="M176 677l126 -339l-126 -338h-19l-127 338l127 339h19zM166 35l114 303l-114 305l-112 -305z" />
    <glyph glyph-name="uni275B" unicode="&#x275b;" horiz-adv-x="582" 
d="M300 481q104 0 178.5 -61t74.5 -172q0 -107 -75.5 -183t-183.5 -76t-183.5 75t-75.5 179q0 131 62 231.5t162 151.5t221 51v-18q-45 0 -94 -11.5t-104.5 -37.5t-103.5 -78t-76 -123q80 72 198 72z" />
    <glyph glyph-name="uni275C" unicode="&#x275c;" horiz-adv-x="581" 
d="M288 688q108 0 183.5 -75t75.5 -179q0 -131 -62 -231.5t-162 -151.5t-221 -51v18q45 0 94 11.5t104.5 37.5t103.5 78t76 123q-80 -72 -198 -72q-104 0 -178.5 61t-74.5 172q0 107 75.5 183t183.5 76z" />
    <glyph glyph-name="uni275D" unicode="&#x275d;" horiz-adv-x="1070" 
d="M788 481q104 0 178.5 -61t74.5 -172q0 -107 -75.5 -183t-183.5 -76q-84 0 -150.5 47.5t-93.5 122.5q-27 -75 -93.5 -122.5t-150.5 -47.5q-108 0 -183.5 75t-75.5 179q0 131 62 231.5t162 151.5t221 51v-18q-45 0 -94 -11.5t-104.5 -37.5t-103.5 -78t-76 -123
q80 72 198 72q77 0 141 -34.5t93 -100.5q33 153 154 242t280 89v-18q-45 0 -94 -11.5t-104.5 -37.5t-103.5 -78t-76 -123q80 72 198 72z" />
    <glyph glyph-name="uni275E" unicode="&#x275e;" horiz-adv-x="1069" 
d="M776 688q108 0 183.5 -75t75.5 -179q0 -131 -62 -231.5t-162 -151.5t-221 -51v18q45 0 94 11.5t104.5 37.5t103.5 78t76 123q-80 -72 -198 -72q-77 0 -141 34.5t-93 100.5q-33 -153 -154 -242t-280 -89v18q45 0 94 11.5t104.5 37.5t103.5 78t76 123q-80 -72 -198 -72
q-104 0 -178.5 61t-74.5 172q0 107 75.5 183t183.5 76q84 0 150.5 -47.5t93.5 -122.5q27 75 93.5 122.5t150.5 47.5z" />
    <glyph glyph-name="A.ss01" horiz-adv-x="397" 
d="M293 0l-47 187h-165l-46 -187h-21l172 688h20l178 -688h-91zM86 205h155l-78 309z" />
    <glyph glyph-name="Aacute.ss01" horiz-adv-x="397" 
d="M316 784q-85 -43 -180 -56l-6 16q93 50 143 114zM293 0l-47 187h-165l-46 -187h-21l172 688h20l178 -688h-91zM86 205h155l-78 309z" />
    <glyph glyph-name="Abreve.ss01" horiz-adv-x="397" 
d="M195 721q-53 0 -78.5 40.5t-26.5 100.5h14q6 -41 30.5 -63t60.5 -22q35 0 60.5 23.5t29.5 61.5h15q-1 -59 -27 -100t-78 -41zM293 0l-47 187h-165l-46 -187h-21l172 688h20l178 -688h-91zM86 205h155l-78 309z" />
    <glyph glyph-name="uni01CD.ss01" horiz-adv-x="397" 
d="M230 725h-65l-98 122l14 14l116 -91l117 90l14 -13zM293 0l-47 187h-165l-46 -187h-21l172 688h20l178 -688h-91zM86 205h155l-78 309z" />
    <glyph glyph-name="Acircumflex.ss01" horiz-adv-x="397" 
d="M199 807l-119 -84l-12 12l96 118h71l97 -118l-13 -13zM293 0l-47 187h-165l-46 -187h-21l172 688h20l178 -688h-91zM86 205h155l-78 309z" />
    <glyph glyph-name="Adieresis.ss01" horiz-adv-x="397" 
d="M124 745q-19 0 -33.5 15t-14.5 34q0 21 14.5 35.5t33.5 14.5q21 0 34.5 -14.5t13.5 -35.5q0 -20 -13.5 -34.5t-34.5 -14.5zM270 745q-20 0 -34.5 14.5t-14.5 34.5q0 21 14.5 35.5t34.5 14.5q19 0 33 -14.5t14 -35.5q0 -20 -14 -34.5t-33 -14.5zM293 0l-47 187h-165
l-46 -187h-21l172 688h20l178 -688h-91zM86 205h155l-78 309z" />
    <glyph glyph-name="Agrave.ss01" horiz-adv-x="397" 
d="M279 740l-5 -14q-104 20 -184 74l47 73q57 -85 142 -133zM293 0l-47 187h-165l-46 -187h-21l172 688h20l178 -688h-91zM86 205h155l-78 309z" />
    <glyph glyph-name="Amacron.ss01" horiz-adv-x="397" 
d="M312 786v-18h-231v18h231zM293 0l-47 187h-165l-46 -187h-21l172 688h20l178 -688h-91zM86 205h155l-78 309z" />
    <glyph glyph-name="Aogonek.ss01" horiz-adv-x="397" 
d="M275 -181q26 0 49 16l9 -13q-36 -27 -84 -27q-39 0 -65 20t-26 57q0 47 39.5 79.5t95.5 49.5l-47 186h-165l-46 -187h-21l172 688h20l178 -688h-66q-44 -22 -68.5 -55.5t-24.5 -69.5q0 -27 14 -41.5t36 -14.5zM86 205h155l-78 309z" />
    <glyph glyph-name="Aring.ss01" horiz-adv-x="397" 
d="M197 721q-35 0 -55.5 20.5t-20.5 55.5q0 34 21 55.5t55 21.5t54.5 -21t20.5 -56q0 -33 -21 -54.5t-54 -21.5zM197 857q-24 0 -38.5 -16.5t-14.5 -43.5t14.5 -43.5t38.5 -16.5q23 0 37.5 16.5t14.5 43.5t-14.5 43.5t-37.5 16.5zM293 0l-47 187h-165l-46 -187h-21l172 688
h20l178 -688h-91zM86 205h155l-78 309z" />
    <glyph glyph-name="Atilde.ss01" horiz-adv-x="397" 
d="M132 797q-29 0 -34 -50h-16q0 102 60 102q30 0 73.5 -25t53.5 -25q31 0 35 50h16q0 -102 -61 -102q-26 0 -70.5 25t-56.5 25zM293 0l-47 187h-165l-46 -187h-21l172 688h20l178 -688h-91zM86 205h155l-78 309z" />
    <glyph glyph-name="N.ss01" horiz-adv-x="461" 
d="M376 677h20v-689h-18l-293 655v-643h-20v677h98l213 -488v488z" />
    <glyph glyph-name="Nacute.ss01" horiz-adv-x="461" 
d="M357 784q-85 -43 -180 -56l-6 16q93 50 143 114zM376 677h20v-689h-18l-293 655v-643h-20v677h98l213 -488v488z" />
    <glyph glyph-name="Ncaron.ss01" horiz-adv-x="461" 
d="M271 725h-65l-98 122l14 14l116 -91l117 90l14 -13zM376 677h20v-689h-18l-293 655v-643h-20v677h98l213 -488v488z" />
    <glyph glyph-name="Ncommaaccent.ss01" horiz-adv-x="461" 
d="M376 677h20v-689h-18l-293 655v-643h-20v677h98l213 -488v488zM225 -45q41 0 41 -48q0 -27 -18.5 -59.5t-46.5 -56.5l-12 12q27 32 27 65q0 37 -36 43q6 44 45 44z" />
    <glyph glyph-name="Ntilde.ss01" horiz-adv-x="461" 
d="M173 797q-29 0 -34 -50h-16q0 102 60 102q30 0 73.5 -25t53.5 -25q31 0 35 50h16q0 -102 -61 -102q-26 0 -70.5 25t-56.5 25zM376 677h20v-689h-18l-293 655v-643h-20v677h98l213 -488v488z" />
    <glyph glyph-name="V.ss01" horiz-adv-x="398" 
d="M362 677h21l-170 -689h-21l-177 689h94l125 -520z" />
    <glyph glyph-name="W.ss01" horiz-adv-x="567" 
d="M526 677h21l-127 -688h-21l-107 475l-118 -475h-20l-135 688h88l95 -491l109 434h23l101 -438z" />
    <glyph glyph-name="Wacute.ss01" horiz-adv-x="567" 
d="M424 784q-85 -43 -180 -56l-6 16q93 50 143 114zM526 677h21l-127 -688h-21l-107 475l-118 -475h-20l-135 688h88l95 -491l109 434h23l101 -438z" />
    <glyph glyph-name="Wcircumflex.ss01" horiz-adv-x="567" 
d="M307 807l-119 -84l-12 12l96 118h71l97 -118l-13 -13zM526 677h21l-127 -688h-21l-107 475l-118 -475h-20l-135 688h88l95 -491l109 434h23l101 -438z" />
    <glyph glyph-name="Wdieresis.ss01" horiz-adv-x="567" 
d="M232 745q-19 0 -33.5 15t-14.5 34q0 21 14.5 35.5t33.5 14.5q21 0 34.5 -14.5t13.5 -35.5q0 -20 -13.5 -34.5t-34.5 -14.5zM378 745q-20 0 -34.5 14.5t-14.5 34.5q0 21 14.5 35.5t34.5 14.5q19 0 33 -14.5t14 -35.5q0 -20 -14 -34.5t-33 -14.5zM526 677h21l-127 -688h-21
l-107 475l-118 -475h-20l-135 688h88l95 -491l109 434h23l101 -438z" />
    <glyph glyph-name="Wgrave.ss01" horiz-adv-x="567" 
d="M387 740l-5 -14q-104 20 -184 74l47 73q57 -85 142 -133zM526 677h21l-127 -688h-21l-107 475l-118 -475h-20l-135 688h88l95 -491l109 434h23l101 -438z" />
    <glyph glyph-name="U.ss02" horiz-adv-x="506" 
d="M355 677h86v-677h-82v76h-2q-30 -89 -139 -89q-79 0 -116.5 53.5t-37.5 169.5v467h86v-496q0 -93 23.5 -131t73.5 -38q108 0 108 160v505z" />
    <glyph glyph-name="Uacute.ss02" horiz-adv-x="506" 
d="M372 784q-85 -43 -180 -56l-6 16q93 50 143 114zM355 677h86v-677h-82v76h-2q-30 -89 -139 -89q-79 0 -116.5 53.5t-37.5 169.5v467h86v-496q0 -93 23.5 -131t73.5 -38q108 0 108 160v505z" />
    <glyph glyph-name="uni01D3.ss02" horiz-adv-x="506" 
d="M286 725h-65l-98 122l14 14l116 -91l117 90l14 -13zM355 677h86v-677h-82v76h-2q-30 -89 -139 -89q-79 0 -116.5 53.5t-37.5 169.5v467h86v-496q0 -93 23.5 -131t73.5 -38q108 0 108 160v505z" />
    <glyph glyph-name="Ucircumflex.ss02" horiz-adv-x="506" 
d="M255 807l-119 -84l-12 12l96 118h71l97 -118l-13 -13zM355 677h86v-677h-82v76h-2q-30 -89 -139 -89q-79 0 -116.5 53.5t-37.5 169.5v467h86v-496q0 -93 23.5 -131t73.5 -38q108 0 108 160v505z" />
    <glyph glyph-name="Udieresis.ss02" horiz-adv-x="506" 
d="M180 745q-19 0 -33.5 15t-14.5 34q0 21 14.5 35.5t33.5 14.5q21 0 34.5 -14.5t13.5 -35.5q0 -20 -13.5 -34.5t-34.5 -14.5zM326 745q-20 0 -34.5 14.5t-14.5 34.5q0 21 14.5 35.5t34.5 14.5q19 0 33 -14.5t14 -35.5q0 -20 -14 -34.5t-33 -14.5zM355 677h86v-677h-82v76
h-2q-30 -89 -139 -89q-79 0 -116.5 53.5t-37.5 169.5v467h86v-496q0 -93 23.5 -131t73.5 -38q108 0 108 160v505z" />
    <glyph glyph-name="Ugrave.ss02" horiz-adv-x="506" 
d="M335 740l-5 -14q-104 20 -184 74l47 73q57 -85 142 -133zM355 677h86v-677h-82v76h-2q-30 -89 -139 -89q-79 0 -116.5 53.5t-37.5 169.5v467h86v-496q0 -93 23.5 -131t73.5 -38q108 0 108 160v505z" />
    <glyph glyph-name="Uhungarumlaut.ss02" horiz-adv-x="506" 
d="M319 857l-126 -120l-13 11l74 148zM290 726l-13 13l115 121l44 -59zM355 677h86v-677h-82v76h-2q-30 -89 -139 -89q-79 0 -116.5 53.5t-37.5 169.5v467h86v-496q0 -93 23.5 -131t73.5 -38q108 0 108 160v505z" />
    <glyph glyph-name="Umacron.ss02" horiz-adv-x="506" 
d="M368 786v-18h-231v18h231zM355 677h86v-677h-82v76h-2q-30 -89 -139 -89q-79 0 -116.5 53.5t-37.5 169.5v467h86v-496q0 -93 23.5 -131t73.5 -38q108 0 108 160v505z" />
    <glyph glyph-name="Uogonek.ss02" horiz-adv-x="506" 
d="M447 -165l9 -13q-36 -27 -84 -27q-39 0 -65 20t-26 57q0 47 38 78.5t93 49.5h-53v76h-2q-30 -89 -139 -89q-79 0 -116.5 53.5t-37.5 169.5v467h86v-496q0 -93 23.5 -131t73.5 -38q108 0 108 160v505h86v-677q-44 -22 -68.5 -55.5t-24.5 -69.5q0 -27 14 -41.5t36 -14.5
q26 0 49 16z" />
    <glyph glyph-name="Uring.ss02" horiz-adv-x="506" 
d="M253 721q-35 0 -55.5 20.5t-20.5 55.5q0 34 21 55.5t55 21.5t54.5 -21t20.5 -56q0 -33 -21 -54.5t-54 -21.5zM253 857q-24 0 -38.5 -16.5t-14.5 -43.5t14.5 -43.5t38.5 -16.5q23 0 37.5 16.5t14.5 43.5t-14.5 43.5t-37.5 16.5zM355 677h86v-677h-82v76h-2
q-30 -89 -139 -89q-79 0 -116.5 53.5t-37.5 169.5v467h86v-496q0 -93 23.5 -131t73.5 -38q108 0 108 160v505z" />
    <glyph glyph-name="Utilde.ss02" horiz-adv-x="506" 
d="M188 797q-29 0 -34 -50h-16q0 102 60 102q30 0 73.5 -25t53.5 -25q31 0 35 50h16q0 -102 -61 -102q-27 0 -71.5 25t-55.5 25zM355 677h86v-677h-82v76h-2q-30 -89 -139 -89q-79 0 -116.5 53.5t-37.5 169.5v467h86v-496q0 -93 23.5 -131t73.5 -38q108 0 108 160v505z" />
    <glyph glyph-name="Ubreve.sso2" horiz-adv-x="506" 
d="M251 721q-53 0 -78.5 40.5t-26.5 100.5h14q6 -41 30.5 -63t60.5 -22q35 0 60.5 23.5t29.5 61.5h15q-1 -59 -27 -100t-78 -41zM355 677h86v-677h-82v76h-2q-30 -89 -139 -89q-79 0 -116.5 53.5t-37.5 169.5v467h86v-496q0 -93 23.5 -131t73.5 -38q108 0 108 160v505z" />
    <glyph glyph-name="i.loclTRK" horiz-adv-x="216" 
d="M56 792q0 22 15.5 37.5t36.5 15.5t35.5 -15.5t14.5 -37.5q0 -21 -14.5 -36t-35.5 -15t-36.5 15t-15.5 36zM151 0h-86v677h86v-677z" />
    <glyph glyph-name="a.ss01" horiz-adv-x="397" 
d="M293 0l-47 187h-165l-46 -187h-21l172 688h20l178 -688h-91zM86 205h155l-78 309z" />
    <glyph glyph-name="aacute.ss01" horiz-adv-x="397" 
d="M316 784q-85 -43 -180 -56l-6 16q93 50 143 114zM293 0l-47 187h-165l-46 -187h-21l172 688h20l178 -688h-91zM86 205h155l-78 309z" />
    <glyph glyph-name="abreve.ss01" horiz-adv-x="397" 
d="M195 721q-53 0 -78.5 40.5t-26.5 100.5h14q6 -41 30.5 -63t60.5 -22q35 0 60.5 23.5t29.5 61.5h15q-1 -59 -27 -100t-78 -41zM293 0l-47 187h-165l-46 -187h-21l172 688h20l178 -688h-91zM86 205h155l-78 309z" />
    <glyph glyph-name="uni01CE.ss01" horiz-adv-x="397" 
d="M230 725h-65l-98 122l14 14l116 -91l117 90l14 -13zM293 0l-47 187h-165l-46 -187h-21l172 688h20l178 -688h-91zM86 205h155l-78 309z" />
    <glyph glyph-name="acircumflex.ss01" horiz-adv-x="397" 
d="M199 807l-119 -84l-12 12l96 118h71l97 -118l-13 -13zM293 0l-47 187h-165l-46 -187h-21l172 688h20l178 -688h-91zM86 205h155l-78 309z" />
    <glyph glyph-name="adieresis.ss01" horiz-adv-x="397" 
d="M124 745q-19 0 -33.5 15t-14.5 34q0 21 14.5 35.5t33.5 14.5q21 0 34.5 -14.5t13.5 -35.5q0 -20 -13.5 -34.5t-34.5 -14.5zM270 745q-20 0 -34.5 14.5t-14.5 34.5q0 21 14.5 35.5t34.5 14.5q19 0 33 -14.5t14 -35.5q0 -20 -14 -34.5t-33 -14.5zM293 0l-47 187h-165
l-46 -187h-21l172 688h20l178 -688h-91zM86 205h155l-78 309z" />
    <glyph glyph-name="agrave.ss01" horiz-adv-x="397" 
d="M279 740l-5 -14q-104 20 -184 74l47 73q57 -85 142 -133zM293 0l-47 187h-165l-46 -187h-21l172 688h20l178 -688h-91zM86 205h155l-78 309z" />
    <glyph glyph-name="amacron.ss01" horiz-adv-x="397" 
d="M312 786v-18h-231v18h231zM293 0l-47 187h-165l-46 -187h-21l172 688h20l178 -688h-91zM86 205h155l-78 309z" />
    <glyph glyph-name="aogonek.ss01" horiz-adv-x="397" 
d="M275 -181q26 0 49 16l9 -13q-36 -27 -84 -27q-39 0 -65 20t-26 57q0 47 39.5 79.5t95.5 49.5l-47 186h-165l-46 -187h-21l172 688h20l178 -688h-66q-44 -22 -68.5 -55.5t-24.5 -69.5q0 -27 14 -41.5t36 -14.5zM86 205h155l-78 309z" />
    <glyph glyph-name="aring.ss01" horiz-adv-x="397" 
d="M197 721q-35 0 -55.5 20.5t-20.5 55.5q0 34 21 55.5t55 21.5t54.5 -21t20.5 -56q0 -33 -21 -54.5t-54 -21.5zM197 857q-24 0 -38.5 -16.5t-14.5 -43.5t14.5 -43.5t38.5 -16.5q23 0 37.5 16.5t14.5 43.5t-14.5 43.5t-37.5 16.5zM293 0l-47 187h-165l-46 -187h-21l172 688
h20l178 -688h-91zM86 205h155l-78 309z" />
    <glyph glyph-name="atilde.ss01" horiz-adv-x="397" 
d="M132 797q-29 0 -34 -50h-16q0 102 60 102q30 0 73.5 -25t53.5 -25q31 0 35 50h16q0 -102 -61 -102q-26 0 -70.5 25t-56.5 25zM293 0l-47 187h-165l-46 -187h-21l172 688h20l178 -688h-91zM86 205h155l-78 309z" />
    <glyph glyph-name="n.ss01" horiz-adv-x="461" 
d="M376 677h20v-689h-18l-293 655v-643h-20v677h98l213 -488v488z" />
    <glyph glyph-name="nacute.ss01" horiz-adv-x="461" 
d="M357 784q-85 -43 -180 -56l-6 16q93 50 143 114zM376 677h20v-689h-18l-293 655v-643h-20v677h98l213 -488v488z" />
    <glyph glyph-name="ncaron.ss01" horiz-adv-x="461" 
d="M271 725h-65l-98 122l14 14l116 -91l117 90l14 -13zM376 677h20v-689h-18l-293 655v-643h-20v677h98l213 -488v488z" />
    <glyph glyph-name="ncommaaccent.ss01" horiz-adv-x="461" 
d="M376 677h20v-689h-18l-293 655v-643h-20v677h98l213 -488v488zM225 -45q41 0 41 -48q0 -27 -18.5 -59.5t-46.5 -56.5l-12 12q27 32 27 65q0 37 -36 43q6 44 45 44z" />
    <glyph glyph-name="ntilde.ss01" horiz-adv-x="461" 
d="M173 797q-29 0 -34 -50h-16q0 102 60 102q30 0 73.5 -25t53.5 -25q31 0 35 50h16q0 -102 -61 -102q-26 0 -70.5 25t-56.5 25zM376 677h20v-689h-18l-293 655v-643h-20v677h98l213 -488v488z" />
    <glyph glyph-name="v.ss01" horiz-adv-x="398" 
d="M362 677h21l-170 -689h-21l-177 689h94l125 -520z" />
    <glyph glyph-name="w.ss01" horiz-adv-x="567" 
d="M526 677h21l-127 -688h-21l-107 475l-118 -475h-20l-135 688h88l95 -491l109 434h23l101 -438z" />
    <glyph glyph-name="wacute.ss01" horiz-adv-x="567" 
d="M424 784q-85 -43 -180 -56l-6 16q93 50 143 114zM526 677h21l-127 -688h-21l-107 475l-118 -475h-20l-135 688h88l95 -491l109 434h23l101 -438z" />
    <glyph glyph-name="wcircumflex.ss01" horiz-adv-x="567" 
d="M307 807l-119 -84l-12 12l96 118h71l97 -118l-13 -13zM526 677h21l-127 -688h-21l-107 475l-118 -475h-20l-135 688h88l95 -491l109 434h23l101 -438z" />
    <glyph glyph-name="wdieresis.ss01" horiz-adv-x="567" 
d="M232 745q-19 0 -33.5 15t-14.5 34q0 21 14.5 35.5t33.5 14.5q21 0 34.5 -14.5t13.5 -35.5q0 -20 -13.5 -34.5t-34.5 -14.5zM378 745q-20 0 -34.5 14.5t-14.5 34.5q0 21 14.5 35.5t34.5 14.5q19 0 33 -14.5t14 -35.5q0 -20 -14 -34.5t-33 -14.5zM526 677h21l-127 -688h-21
l-107 475l-118 -475h-20l-135 688h88l95 -491l109 434h23l101 -438z" />
    <glyph glyph-name="wgrave.ss01" horiz-adv-x="567" 
d="M387 740l-5 -14q-104 20 -184 74l47 73q57 -85 142 -133zM526 677h21l-127 -688h-21l-107 475l-118 -475h-20l-135 688h88l95 -491l109 434h23l101 -438z" />
    <glyph glyph-name="u.ss02" horiz-adv-x="506" 
d="M355 677h86v-677h-82v76h-2q-30 -89 -139 -89q-79 0 -116.5 53.5t-37.5 169.5v467h86v-496q0 -93 23.5 -131t73.5 -38q108 0 108 160v505z" />
    <glyph glyph-name="uacute.ss02" horiz-adv-x="506" 
d="M372 784q-85 -43 -180 -56l-6 16q93 50 143 114zM355 677h86v-677h-82v76h-2q-30 -89 -139 -89q-79 0 -116.5 53.5t-37.5 169.5v467h86v-496q0 -93 23.5 -131t73.5 -38q108 0 108 160v505z" />
    <glyph glyph-name="uni01D4.ss02" horiz-adv-x="506" 
d="M286 725h-65l-98 122l14 14l116 -91l117 90l14 -13zM355 677h86v-677h-82v76h-2q-30 -89 -139 -89q-79 0 -116.5 53.5t-37.5 169.5v467h86v-496q0 -93 23.5 -131t73.5 -38q108 0 108 160v505z" />
    <glyph glyph-name="ucircumflex.ss02" horiz-adv-x="506" 
d="M255 807l-119 -84l-12 12l96 118h71l97 -118l-13 -13zM355 677h86v-677h-82v76h-2q-30 -89 -139 -89q-79 0 -116.5 53.5t-37.5 169.5v467h86v-496q0 -93 23.5 -131t73.5 -38q108 0 108 160v505z" />
    <glyph glyph-name="udieresis.ss02" horiz-adv-x="506" 
d="M180 745q-19 0 -33.5 15t-14.5 34q0 21 14.5 35.5t33.5 14.5q21 0 34.5 -14.5t13.5 -35.5q0 -20 -13.5 -34.5t-34.5 -14.5zM326 745q-20 0 -34.5 14.5t-14.5 34.5q0 21 14.5 35.5t34.5 14.5q19 0 33 -14.5t14 -35.5q0 -20 -14 -34.5t-33 -14.5zM355 677h86v-677h-82v76
h-2q-30 -89 -139 -89q-79 0 -116.5 53.5t-37.5 169.5v467h86v-496q0 -93 23.5 -131t73.5 -38q108 0 108 160v505z" />
    <glyph glyph-name="ugrave.ss02" horiz-adv-x="506" 
d="M335 740l-5 -14q-104 20 -184 74l47 73q57 -85 142 -133zM355 677h86v-677h-82v76h-2q-30 -89 -139 -89q-79 0 -116.5 53.5t-37.5 169.5v467h86v-496q0 -93 23.5 -131t73.5 -38q108 0 108 160v505z" />
    <glyph glyph-name="uhungarumlaut.ss02" horiz-adv-x="506" 
d="M319 857l-126 -120l-13 11l74 148zM290 726l-13 13l115 121l44 -59zM355 677h86v-677h-82v76h-2q-30 -89 -139 -89q-79 0 -116.5 53.5t-37.5 169.5v467h86v-496q0 -93 23.5 -131t73.5 -38q108 0 108 160v505z" />
    <glyph glyph-name="umacron.ss02" horiz-adv-x="506" 
d="M368 786v-18h-231v18h231zM355 677h86v-677h-82v76h-2q-30 -89 -139 -89q-79 0 -116.5 53.5t-37.5 169.5v467h86v-496q0 -93 23.5 -131t73.5 -38q108 0 108 160v505z" />
    <glyph glyph-name="uogonek.ss02" horiz-adv-x="506" 
d="M447 -165l9 -13q-36 -27 -84 -27q-39 0 -65 20t-26 57q0 47 38 78.5t93 49.5h-53v76h-2q-30 -89 -139 -89q-79 0 -116.5 53.5t-37.5 169.5v467h86v-496q0 -93 23.5 -131t73.5 -38q108 0 108 160v505h86v-677q-44 -22 -68.5 -55.5t-24.5 -69.5q0 -27 14 -41.5t36 -14.5
q26 0 49 16z" />
    <glyph glyph-name="uring.ss02" horiz-adv-x="506" 
d="M253 721q-35 0 -55.5 20.5t-20.5 55.5q0 34 21 55.5t55 21.5t54.5 -21t20.5 -56q0 -33 -21 -54.5t-54 -21.5zM253 857q-24 0 -38.5 -16.5t-14.5 -43.5t14.5 -43.5t38.5 -16.5q23 0 37.5 16.5t14.5 43.5t-14.5 43.5t-37.5 16.5zM355 677h86v-677h-82v76h-2
q-30 -89 -139 -89q-79 0 -116.5 53.5t-37.5 169.5v467h86v-496q0 -93 23.5 -131t73.5 -38q108 0 108 160v505z" />
    <glyph glyph-name="utilde.ss02" horiz-adv-x="506" 
d="M188 797q-29 0 -34 -50h-16q0 102 60 102q30 0 73.5 -25t53.5 -25q31 0 35 50h16q0 -102 -61 -102q-27 0 -71.5 25t-55.5 25zM355 677h86v-677h-82v76h-2q-30 -89 -139 -89q-79 0 -116.5 53.5t-37.5 169.5v467h86v-496q0 -93 23.5 -131t73.5 -38q108 0 108 160v505z" />
    <glyph glyph-name="ubreve.sso2" horiz-adv-x="506" 
d="M251 721q-53 0 -78.5 40.5t-26.5 100.5h14q6 -41 30.5 -63t60.5 -22q35 0 60.5 23.5t29.5 61.5h15q-1 -59 -27 -100t-78 -41zM355 677h86v-677h-82v76h-2q-30 -89 -139 -89q-79 0 -116.5 53.5t-37.5 169.5v467h86v-496q0 -93 23.5 -131t73.5 -38q108 0 108 160v505z" />
    <glyph glyph-name="A_A" 
d="M652 0l-51 231h-159l-52 -231h-89l-51 231h-159l-52 -231h-21l143 632l-10 45h89l140 -630l132 585l-10 45h89l150 -677h-89zM95 249h151l-75 338zM446 249h151l-75 338z" />
    <glyph glyph-name="A_Aacute" 
d="M674 784q-85 -43 -180 -56l-6 16q93 50 143 114zM652 0l-51 231h-159l-52 -231h-89l-51 231h-159l-52 -231h-21l143 632l-10 45h89l140 -630l132 585l-10 45h89l150 -677h-89zM95 249h151l-75 338zM446 249h151l-75 338z" />
    <glyph glyph-name="A_Abreve" 
d="M553 721q-53 0 -78.5 40.5t-26.5 100.5h14q6 -41 30.5 -63t60.5 -22q35 0 60.5 23.5t29.5 61.5h15q-1 -59 -27 -100t-78 -41zM652 0l-51 231h-159l-52 -231h-89l-51 231h-159l-52 -231h-21l143 632l-10 45h89l140 -630l132 585l-10 45h89l150 -677h-89zM95 249h151
l-75 338zM446 249h151l-75 338z" />
    <glyph glyph-name="uni004101CD" 
d="M588 725h-65l-98 122l14 14l116 -91l117 90l14 -13zM652 0l-51 231h-159l-52 -231h-89l-51 231h-159l-52 -231h-21l143 632l-10 45h89l140 -630l132 585l-10 45h89l150 -677h-89zM95 249h151l-75 338zM446 249h151l-75 338z" />
    <glyph glyph-name="A_Acircumflex" 
d="M557 807l-119 -84l-12 12l96 118h71l97 -118l-13 -13zM652 0l-51 231h-159l-52 -231h-89l-51 231h-159l-52 -231h-21l143 632l-10 45h89l140 -630l132 585l-10 45h89l150 -677h-89zM95 249h151l-75 338zM446 249h151l-75 338z" />
    <glyph glyph-name="A_Adieresis" 
d="M482 745q-19 0 -33.5 15t-14.5 34q0 21 14.5 35.5t33.5 14.5q21 0 34.5 -14.5t13.5 -35.5q0 -20 -13.5 -34.5t-34.5 -14.5zM628 745q-20 0 -34.5 14.5t-14.5 34.5q0 21 14.5 35.5t34.5 14.5q19 0 33 -14.5t14 -35.5q0 -20 -14 -34.5t-33 -14.5zM652 0l-51 231h-159
l-52 -231h-89l-51 231h-159l-52 -231h-21l143 632l-10 45h89l140 -630l132 585l-10 45h89l150 -677h-89zM95 249h151l-75 338zM446 249h151l-75 338z" />
    <glyph glyph-name="A_Agrave" 
d="M637 740l-5 -14q-104 20 -184 74l47 73q57 -85 142 -133zM652 0l-51 231h-159l-52 -231h-89l-51 231h-159l-52 -231h-21l143 632l-10 45h89l140 -630l132 585l-10 45h89l150 -677h-89zM95 249h151l-75 338zM446 249h151l-75 338z" />
    <glyph glyph-name="A_Amacron" 
d="M670 786v-18h-231v18h231zM652 0l-51 231h-159l-52 -231h-89l-51 231h-159l-52 -231h-21l143 632l-10 45h89l140 -630l132 585l-10 45h89l150 -677h-89zM95 249h151l-75 338zM446 249h151l-75 338z" />
    <glyph glyph-name="A_Aogonek" 
d="M636 -181q26 0 49 16l9 -13q-36 -27 -84 -27q-39 0 -65 20t-26 57q0 47 39 79t94 49l-51 231h-159l-52 -231h-89l-51 231h-159l-52 -231h-21l143 632l-10 45h89l140 -630l132 585l-10 45h89l150 -677h-62q-44 -22 -68.5 -55.5t-24.5 -69.5q0 -27 14 -41.5t36 -14.5z
M95 249h151l-75 338zM446 249h151l-75 338z" />
    <glyph glyph-name="A_Aring" 
d="M555 721q-35 0 -55.5 20.5t-20.5 55.5q0 34 21 55.5t55 21.5t54.5 -21t20.5 -56q0 -33 -21 -54.5t-54 -21.5zM555 857q-24 0 -38.5 -16.5t-14.5 -43.5t14.5 -43.5t38.5 -16.5q23 0 37.5 16.5t14.5 43.5t-14.5 43.5t-37.5 16.5zM652 0l-51 231h-159l-52 -231h-89l-51 231
h-159l-52 -231h-21l143 632l-10 45h89l140 -630l132 585l-10 45h89l150 -677h-89zM95 249h151l-75 338zM446 249h151l-75 338z" />
    <glyph glyph-name="A_Atilde" 
d="M490 797q-29 0 -34 -50h-16q0 102 60 102q30 0 73.5 -25t53.5 -25q31 0 35 50h16q0 -102 -61 -102q-27 0 -71 25t-56 25zM652 0l-51 231h-159l-52 -231h-89l-51 231h-159l-52 -231h-21l143 632l-10 45h89l140 -630l132 585l-10 45h89l150 -677h-89zM95 249h151l-75 338z
M446 249h151l-75 338z" />
    <glyph glyph-name="A_V" horiz-adv-x="544" 
d="M501 677h21l-135 -677h-86l-52 231h-158l-52 -231h-21l143 628l-11 49h89l139 -623zM95 249h150l-74 334z" />
    <glyph glyph-name="Aacute_A" 
d="M324 784q-85 -43 -180 -56l-6 16q93 50 143 114zM652 0l-51 231h-159l-52 -231h-89l-51 231h-159l-52 -231h-21l143 632l-10 45h89l140 -630l132 585l-10 45h89l150 -677h-89zM95 249h151l-75 338zM446 249h151l-75 338z" />
    <glyph glyph-name="Aacute_V" horiz-adv-x="544" 
d="M319 784q-85 -43 -180 -56l-6 16q93 50 143 114zM501 677h21l-135 -677h-86l-52 231h-158l-52 -231h-21l143 628l-11 49h89l139 -623zM95 249h150l-74 334z" />
    <glyph glyph-name="Abreve_A" 
d="M203 721q-53 0 -78.5 40.5t-26.5 100.5h14q6 -41 30.5 -63t60.5 -22q35 0 60.5 23.5t29.5 61.5h15q-1 -59 -27 -100t-78 -41zM652 0l-51 231h-159l-52 -231h-89l-51 231h-159l-52 -231h-21l143 632l-10 45h89l140 -630l132 585l-10 45h89l150 -677h-89zM95 249h151
l-75 338zM446 249h151l-75 338z" />
    <glyph glyph-name="Abreve_V" horiz-adv-x="544" 
d="M198 721q-53 0 -78.5 40.5t-26.5 100.5h14q6 -41 30.5 -63t60.5 -22q35 0 60.5 23.5t29.5 61.5h15q-1 -59 -27 -100t-78 -41zM501 677h21l-135 -677h-86l-52 231h-158l-52 -231h-21l143 628l-11 49h89l139 -623zM95 249h150l-74 334z" />
    <glyph glyph-name="uni01CD0041" 
d="M238 725h-65l-98 122l14 14l116 -91l117 90l14 -13zM652 0l-51 231h-159l-52 -231h-89l-51 231h-159l-52 -231h-21l143 632l-10 45h89l140 -630l132 585l-10 45h89l150 -677h-89zM95 249h151l-75 338zM446 249h151l-75 338z" />
    <glyph glyph-name="uni01CD0056" horiz-adv-x="544" 
d="M233 725h-65l-98 122l14 14l116 -91l117 90l14 -13zM501 677h21l-135 -677h-86l-52 231h-158l-52 -231h-21l143 628l-11 49h89l139 -623zM95 249h150l-74 334z" />
    <glyph glyph-name="Acircumflex_A" 
d="M207 807l-119 -84l-12 12l96 118h71l97 -118l-13 -13zM652 0l-51 231h-159l-52 -231h-89l-51 231h-159l-52 -231h-21l143 632l-10 45h89l140 -630l132 585l-10 45h89l150 -677h-89zM95 249h151l-75 338zM446 249h151l-75 338z" />
    <glyph glyph-name="Acircumflex_V" horiz-adv-x="544" 
d="M202 807l-119 -84l-12 12l96 118h71l97 -118l-13 -13zM501 677h21l-135 -677h-86l-52 231h-158l-52 -231h-21l143 628l-11 49h89l139 -623zM95 249h150l-74 334z" />
    <glyph glyph-name="Adieresis_A" 
d="M132 745q-19 0 -33.5 15t-14.5 34q0 21 14.5 35.5t33.5 14.5q21 0 34.5 -14.5t13.5 -35.5q0 -20 -13.5 -34.5t-34.5 -14.5zM278 745q-20 0 -34.5 14.5t-14.5 34.5q0 21 14.5 35.5t34.5 14.5q19 0 33 -14.5t14 -35.5q0 -20 -14 -34.5t-33 -14.5zM652 0l-51 231h-159
l-52 -231h-89l-51 231h-159l-52 -231h-21l143 632l-10 45h89l140 -630l132 585l-10 45h89l150 -677h-89zM95 249h151l-75 338zM446 249h151l-75 338z" />
    <glyph glyph-name="Adieresis_V" horiz-adv-x="544" 
d="M127 745q-19 0 -33.5 15t-14.5 34q0 21 14.5 35.5t33.5 14.5q21 0 34.5 -14.5t13.5 -35.5q0 -20 -13.5 -34.5t-34.5 -14.5zM273 745q-19 0 -34 14.5t-15 34.5q0 21 14.5 35.5t34.5 14.5q19 0 33 -14.5t14 -35.5q0 -20 -14 -34.5t-33 -14.5zM501 677h21l-135 -677h-86
l-52 231h-158l-52 -231h-21l143 628l-11 49h89l139 -623zM95 249h150l-74 334z" />
    <glyph glyph-name="Agrave_A" 
d="M287 740l-5 -14q-104 20 -184 74l47 73q57 -85 142 -133zM652 0l-51 231h-159l-52 -231h-89l-51 231h-159l-52 -231h-21l143 632l-10 45h89l140 -630l132 585l-10 45h89l150 -677h-89zM95 249h151l-75 338zM446 249h151l-75 338z" />
    <glyph glyph-name="Agrave_V" horiz-adv-x="544" 
d="M282 740l-5 -14q-104 20 -184 74l47 73q57 -85 142 -133zM501 677h21l-135 -677h-86l-52 231h-158l-52 -231h-21l143 628l-11 49h89l139 -623zM95 249h150l-74 334z" />
    <glyph glyph-name="Amacron_A" 
d="M320 786v-18h-231v18h231zM652 0l-51 231h-159l-52 -231h-89l-51 231h-159l-52 -231h-21l143 632l-10 45h89l140 -630l132 585l-10 45h89l150 -677h-89zM95 249h151l-75 338zM446 249h151l-75 338z" />
    <glyph glyph-name="Amacron_V" horiz-adv-x="544" 
d="M315 786v-18h-231v18h231zM501 677h21l-135 -677h-86l-52 231h-158l-52 -231h-21l143 628l-11 49h89l139 -623zM95 249h150l-74 334z" />
    <glyph glyph-name="Aogonek_A" 
d="M652 0l-51 231h-159l-52 -231h-65q-44 -22 -68.5 -55.5t-24.5 -69.5q0 -27 14 -41.5t36 -14.5q26 0 49 16l9 -13q-36 -27 -84 -27q-39 0 -65 20t-26 57q0 47 39.5 79.5t96.5 49.5l-51 230h-159l-52 -231h-21l143 632l-10 45h89l140 -630l132 585l-10 45h89l150 -677h-89z
M95 249h151l-75 338zM446 249h151l-75 338z" />
    <glyph glyph-name="Aogonek_V" horiz-adv-x="544" 
d="M501 677h21l-135 -677h-60q-44 -22 -68.5 -55.5t-24.5 -69.5q0 -27 14 -41.5t36 -14.5q26 0 49 16l9 -13q-36 -27 -84 -27q-39 0 -65 20t-26 57q0 47 39 79t95 50l-52 230h-158l-52 -231h-21l143 628l-11 49h89l139 -623zM95 249h150l-74 334z" />
    <glyph glyph-name="Aring_A" 
d="M205 721q-35 0 -55.5 20.5t-20.5 55.5q0 34 21 55.5t55 21.5t54.5 -21t20.5 -56q0 -33 -21 -54.5t-54 -21.5zM205 857q-24 0 -38.5 -16.5t-14.5 -43.5t14.5 -43.5t38.5 -16.5q23 0 37.5 16.5t14.5 43.5t-14.5 43.5t-37.5 16.5zM652 0l-51 231h-159l-52 -231h-89l-51 231
h-159l-52 -231h-21l143 632l-10 45h89l140 -630l132 585l-10 45h89l150 -677h-89zM95 249h151l-75 338zM446 249h151l-75 338z" />
    <glyph glyph-name="Aring_V" horiz-adv-x="544" 
d="M200 721q-34 0 -55 20.5t-21 55.5q0 34 21 55.5t55 21.5t54.5 -21t20.5 -56q0 -33 -21 -54.5t-54 -21.5zM200 857q-24 0 -38.5 -16.5t-14.5 -43.5t14.5 -43.5t38.5 -16.5q23 0 37.5 16.5t14.5 43.5t-14.5 43.5t-37.5 16.5zM501 677h21l-135 -677h-86l-52 231h-158
l-52 -231h-21l143 628l-11 49h89l139 -623zM95 249h150l-74 334z" />
    <glyph glyph-name="Atilde_A" 
d="M140 797q-29 0 -34 -50h-16q0 102 60 102q30 0 73.5 -25t53.5 -25q31 0 35 50h16q0 -102 -61 -102q-27 0 -71 25t-56 25zM652 0l-51 231h-159l-52 -231h-89l-51 231h-159l-52 -231h-21l143 632l-10 45h89l140 -630l132 585l-10 45h89l150 -677h-89zM95 249h151l-75 338z
M446 249h151l-75 338z" />
    <glyph glyph-name="Atilde_V" horiz-adv-x="544" 
d="M135 797q-29 0 -34 -50h-16q0 102 60 102q30 0 73.5 -25t53.5 -25q31 0 35 50h16q0 -102 -61 -102q-26 0 -71 25t-56 25zM501 677h21l-135 -677h-86l-52 231h-158l-52 -231h-21l143 628l-11 49h89l139 -623zM95 249h150l-74 334z" />
    <glyph glyph-name="D_C" horiz-adv-x="1142" 
d="M1125 76l9 -9q-106 -80 -237 -80q-101 0 -183 41.5t-126 124.5q-88 -153 -334 -153h-189v677h206q243 0 322 -152q47 80 132 123t188 43q113 0 194 -47l-7 -11q-78 39 -179 39q-135 0 -209 -86.5t-74 -246.5q0 -161 73.5 -246.5t192.5 -85.5q126 0 221 69zM245 18
q146 0 220.5 86t74.5 233q0 155 -75 238.5t-218 83.5h-96v-641h94z" />
    <glyph glyph-name="D_Cacute" horiz-adv-x="1142" 
d="M1016 784q-85 -43 -180 -56l-6 16q93 50 143 114zM1125 76l9 -9q-106 -80 -237 -80q-101 0 -183 41.5t-126 124.5q-88 -153 -334 -153h-189v677h206q243 0 322 -152q47 80 132 123t188 43q113 0 194 -47l-7 -11q-78 39 -179 39q-135 0 -209 -86.5t-74 -246.5
q0 -161 73.5 -246.5t192.5 -85.5q126 0 221 69zM245 18q146 0 220.5 86t74.5 233q0 155 -75 238.5t-218 83.5h-96v-641h94z" />
    <glyph glyph-name="D_Ccaron" horiz-adv-x="1142" 
d="M930 725h-65l-98 122l14 14l116 -91l117 90l14 -13zM1125 76l9 -9q-106 -80 -237 -80q-101 0 -183 41.5t-126 124.5q-88 -153 -334 -153h-189v677h206q243 0 322 -152q47 80 132 123t188 43q113 0 194 -47l-7 -11q-78 39 -179 39q-135 0 -209 -86.5t-74 -246.5
q0 -161 73.5 -246.5t192.5 -85.5q126 0 221 69zM245 18q146 0 220.5 86t74.5 233q0 155 -75 238.5t-218 83.5h-96v-641h94z" />
    <glyph glyph-name="D_Ccedilla" horiz-adv-x="1142" 
d="M912 -65q27 0 47.5 -18.5t20.5 -51.5q0 -38 -25 -58.5t-61 -20.5q-40 0 -67 23l12 15q20 -17 41 -17q19 0 31.5 15t12.5 42q0 48 -34 48q-8 0 -17 -3l-12 10l27 68q-98 2 -177.5 43.5t-122.5 122.5q-88 -153 -334 -153h-189v677h206q243 0 322 -152q47 80 132 123t188 43
q113 0 194 -47l-7 -11q-78 39 -179 39q-135 0 -209 -86.5t-74 -246.5q0 -161 73.5 -246.5t192.5 -85.5q126 0 221 69l9 -9q-101 -76 -226 -80l-25 -58q13 6 29 6zM245 18q146 0 220.5 86t74.5 233q0 155 -75 238.5t-218 83.5h-96v-641h94z" />
    <glyph glyph-name="D_Ccircumflex" horiz-adv-x="1142" 
d="M899 807l-119 -84l-12 12l96 118h71l97 -118l-13 -13zM1125 76l9 -9q-106 -80 -237 -80q-101 0 -183 41.5t-126 124.5q-88 -153 -334 -153h-189v677h206q243 0 322 -152q47 80 132 123t188 43q113 0 194 -47l-7 -11q-78 39 -179 39q-135 0 -209 -86.5t-74 -246.5
q0 -161 73.5 -246.5t192.5 -85.5q126 0 221 69zM245 18q146 0 220.5 86t74.5 233q0 155 -75 238.5t-218 83.5h-96v-641h94z" />
    <glyph glyph-name="D_Cdotaccent" horiz-adv-x="1142" 
d="M897 741q-21 0 -36.5 15t-15.5 36q0 22 15.5 37.5t36.5 15.5t35.5 -15.5t14.5 -37.5q0 -21 -14.5 -36t-35.5 -15zM1125 76l9 -9q-106 -80 -237 -80q-101 0 -183 41.5t-126 124.5q-88 -153 -334 -153h-189v677h206q243 0 322 -152q47 80 132 123t188 43q113 0 194 -47
l-7 -11q-78 39 -179 39q-135 0 -209 -86.5t-74 -246.5q0 -161 73.5 -246.5t192.5 -85.5q126 0 221 69zM245 18q146 0 220.5 86t74.5 233q0 155 -75 238.5t-218 83.5h-96v-641h94z" />
    <glyph glyph-name="D_G" horiz-adv-x="1186" 
d="M950 334h194v-296q-113 -51 -237 -51q-110 0 -193.5 41.5t-126.5 122.5q-89 -151 -333 -151h-189v677h206q245 0 323 -154q48 83 135 125.5t193 42.5q118 0 200 -46l-7 -11q-76 38 -182 38q-136 0 -215.5 -87.5t-79.5 -249.5q0 -156 75 -243t202 -87q81 0 144 21v290
h-109v18zM245 18q146 0 220.5 86t74.5 233q0 155 -75 238.5t-218 83.5h-96v-641h94z" />
    <glyph glyph-name="D_Gbreve" horiz-adv-x="1186" 
d="M900 731q-65 0 -97 41t-32 100h18q5 -41 34.5 -63t76.5 -22q46 0 76 23t34 62h18q0 -59 -32 -100t-96 -41zM950 334h194v-296q-113 -51 -237 -51q-110 0 -193.5 41.5t-126.5 122.5q-89 -151 -333 -151h-189v677h206q245 0 323 -154q48 83 135 125.5t193 42.5
q118 0 200 -46l-7 -11q-76 38 -182 38q-136 0 -215.5 -87.5t-79.5 -249.5q0 -156 75 -243t202 -87q81 0 144 21v290h-109v18zM245 18q146 0 220.5 86t74.5 233q0 155 -75 238.5t-218 83.5h-96v-641h94z" />
    <glyph glyph-name="D_Gcircumflex" horiz-adv-x="1186" 
d="M905 807l-119 -84l-12 12l96 118h71l97 -118l-13 -13zM950 334h194v-296q-113 -51 -237 -51q-110 0 -193.5 41.5t-126.5 122.5q-89 -151 -333 -151h-189v677h206q245 0 323 -154q48 83 135 125.5t193 42.5q118 0 200 -46l-7 -11q-76 38 -182 38q-136 0 -215.5 -87.5
t-79.5 -249.5q0 -156 75 -243t202 -87q81 0 144 21v290h-109v18zM245 18q146 0 220.5 86t74.5 233q0 155 -75 238.5t-218 83.5h-96v-641h94z" />
    <glyph glyph-name="D_Gcommaaccent" horiz-adv-x="1186" 
d="M950 334h194v-296q-113 -51 -237 -51q-110 0 -193.5 41.5t-126.5 122.5q-89 -151 -333 -151h-189v677h206q245 0 323 -154q48 83 135 125.5t193 42.5q118 0 200 -46l-7 -11q-76 38 -182 38q-136 0 -215.5 -87.5t-79.5 -249.5q0 -156 75 -243t202 -87q81 0 144 21v290
h-109v18zM245 18q146 0 220.5 86t74.5 233q0 155 -75 238.5t-218 83.5h-96v-641h94zM913 -53q41 0 41 -48q0 -27 -18.5 -59.5t-46.5 -56.5l-12 12q27 32 27 65q0 37 -36 43q6 44 45 44z" />
    <glyph glyph-name="D_Gdotaccent" horiz-adv-x="1186" 
d="M903 741q-21 0 -36.5 15t-15.5 36q0 22 15.5 37.5t36.5 15.5t35.5 -15.5t14.5 -37.5q0 -21 -14.5 -36t-35.5 -15zM950 334h194v-296q-113 -51 -237 -51q-110 0 -193.5 41.5t-126.5 122.5q-89 -151 -333 -151h-189v677h206q245 0 323 -154q48 83 135 125.5t193 42.5
q118 0 200 -46l-7 -11q-76 38 -182 38q-136 0 -215.5 -87.5t-79.5 -249.5q0 -156 75 -243t202 -87q81 0 144 21v290h-109v18zM245 18q146 0 220.5 86t74.5 233q0 155 -75 238.5t-218 83.5h-96v-641h94z" />
    <glyph glyph-name="D_O" horiz-adv-x="1299" 
d="M900 691q159 0 260 -98.5t101 -252.5q0 -156 -100.5 -254.5t-258.5 -98.5q-107 0 -188 44.5t-124 124.5q-88 -156 -336 -156h-189v677h206q242 0 321 -151q44 78 124 121.5t184 43.5zM902 3q118 0 190 92t72 243q0 154 -72 245.5t-192 91.5q-118 0 -190 -91.5t-72 -242.5
q0 -154 71.5 -246t192.5 -92zM245 18q146 0 220.5 86t74.5 233q0 155 -75 238.5t-218 83.5h-96v-641h94z" />
    <glyph glyph-name="D_Oacute" horiz-adv-x="1299" 
d="M1020 784q-85 -43 -180 -56l-6 16q93 50 143 114zM900 691q159 0 260 -98.5t101 -252.5q0 -156 -100.5 -254.5t-258.5 -98.5q-107 0 -188 44.5t-124 124.5q-88 -156 -336 -156h-189v677h206q242 0 321 -151q44 78 124 121.5t184 43.5zM902 3q118 0 190 92t72 243
q0 154 -72 245.5t-192 91.5q-118 0 -190 -91.5t-72 -242.5q0 -154 71.5 -246t192.5 -92zM245 18q146 0 220.5 86t74.5 233q0 155 -75 238.5t-218 83.5h-96v-641h94z" />
    <glyph glyph-name="D_Obreve" horiz-adv-x="1299" 
d="M898 731q-65 0 -97 41t-32 100h18q5 -41 34.5 -63t76.5 -22q46 0 76 23t34 62h18q0 -59 -32 -100t-96 -41zM900 691q159 0 260 -98.5t101 -252.5q0 -156 -100.5 -254.5t-258.5 -98.5q-107 0 -188 44.5t-124 124.5q-88 -156 -336 -156h-189v677h206q242 0 321 -151
q44 78 124 121.5t184 43.5zM902 3q118 0 190 92t72 243q0 154 -72 245.5t-192 91.5q-118 0 -190 -91.5t-72 -242.5q0 -154 71.5 -246t192.5 -92zM245 18q146 0 220.5 86t74.5 233q0 155 -75 238.5t-218 83.5h-96v-641h94z" />
    <glyph glyph-name="uni004401D1" horiz-adv-x="1299" 
d="M934 725h-65l-98 122l14 14l116 -91l117 90l14 -13zM900 691q159 0 260 -98.5t101 -252.5q0 -156 -100.5 -254.5t-258.5 -98.5q-107 0 -188 44.5t-124 124.5q-88 -156 -336 -156h-189v677h206q242 0 321 -151q44 78 124 121.5t184 43.5zM902 3q118 0 190 92t72 243
q0 154 -72 245.5t-192 91.5q-118 0 -190 -91.5t-72 -242.5q0 -154 71.5 -246t192.5 -92zM245 18q146 0 220.5 86t74.5 233q0 155 -75 238.5t-218 83.5h-96v-641h94z" />
    <glyph glyph-name="D_Ocircumflex" horiz-adv-x="1299" 
d="M903 807l-119 -84l-12 12l96 118h71l97 -118l-13 -13zM900 691q159 0 260 -98.5t101 -252.5q0 -156 -100.5 -254.5t-258.5 -98.5q-107 0 -188 44.5t-124 124.5q-88 -156 -336 -156h-189v677h206q242 0 321 -151q44 78 124 121.5t184 43.5zM902 3q118 0 190 92t72 243
q0 154 -72 245.5t-192 91.5q-118 0 -190 -91.5t-72 -242.5q0 -154 71.5 -246t192.5 -92zM245 18q146 0 220.5 86t74.5 233q0 155 -75 238.5t-218 83.5h-96v-641h94z" />
    <glyph glyph-name="D_Odieresis" horiz-adv-x="1299" 
d="M828 745q-19 0 -33.5 15t-14.5 34q0 21 14.5 35.5t33.5 14.5q21 0 34.5 -14.5t13.5 -35.5q0 -20 -13.5 -34.5t-34.5 -14.5zM974 745q-20 0 -34.5 14.5t-14.5 34.5q0 21 14.5 35.5t34.5 14.5q19 0 33 -14.5t14 -35.5q0 -20 -14 -34.5t-33 -14.5zM900 691q159 0 260 -98.5
t101 -252.5q0 -156 -100.5 -254.5t-258.5 -98.5q-107 0 -188 44.5t-124 124.5q-88 -156 -336 -156h-189v677h206q242 0 321 -151q44 78 124 121.5t184 43.5zM902 3q118 0 190 92t72 243q0 154 -72 245.5t-192 91.5q-118 0 -190 -91.5t-72 -242.5q0 -154 71.5 -246t192.5 -92
zM245 18q146 0 220.5 86t74.5 233q0 155 -75 238.5t-218 83.5h-96v-641h94z" />
    <glyph glyph-name="D_Ograve" horiz-adv-x="1299" 
d="M983 740l-5 -14q-104 20 -184 74l47 73q57 -85 142 -133zM900 691q159 0 260 -98.5t101 -252.5q0 -156 -100.5 -254.5t-258.5 -98.5q-107 0 -188 44.5t-124 124.5q-88 -156 -336 -156h-189v677h206q242 0 321 -151q44 78 124 121.5t184 43.5zM902 3q118 0 190 92t72 243
q0 154 -72 245.5t-192 91.5q-118 0 -190 -91.5t-72 -242.5q0 -154 71.5 -246t192.5 -92zM245 18q146 0 220.5 86t74.5 233q0 155 -75 238.5t-218 83.5h-96v-641h94z" />
    <glyph glyph-name="D_Ohungarumlaut" horiz-adv-x="1299" 
d="M967 857l-126 -120l-13 11l74 148zM938 726l-13 13l115 121l44 -59zM900 691q159 0 260 -98.5t101 -252.5q0 -156 -100.5 -254.5t-258.5 -98.5q-107 0 -188 44.5t-124 124.5q-88 -156 -336 -156h-189v677h206q242 0 321 -151q44 78 124 121.5t184 43.5zM902 3
q118 0 190 92t72 243q0 154 -72 245.5t-192 91.5q-118 0 -190 -91.5t-72 -242.5q0 -154 71.5 -246t192.5 -92zM245 18q146 0 220.5 86t74.5 233q0 155 -75 238.5t-218 83.5h-96v-641h94z" />
    <glyph glyph-name="D_Omacron" horiz-adv-x="1299" 
d="M1016 786v-18h-231v18h231zM900 691q159 0 260 -98.5t101 -252.5q0 -156 -100.5 -254.5t-258.5 -98.5q-107 0 -188 44.5t-124 124.5q-88 -156 -336 -156h-189v677h206q242 0 321 -151q44 78 124 121.5t184 43.5zM902 3q118 0 190 92t72 243q0 154 -72 245.5t-192 91.5
q-118 0 -190 -91.5t-72 -242.5q0 -154 71.5 -246t192.5 -92zM245 18q146 0 220.5 86t74.5 233q0 155 -75 238.5t-218 83.5h-96v-641h94z" />
    <glyph glyph-name="D_Oslash" horiz-adv-x="1299" 
d="M1153 600q108 -100 108 -260q0 -156 -100.5 -254.5t-258.5 -98.5q-143 0 -238 78l-72 -79l-14 13l72 79q-34 31 -60 78q-88 -156 -336 -156h-189v677h206q242 0 321 -151q44 78 124 121.5t184 43.5q139 0 238 -78l72 79l14 -14zM638 341q0 -131 53 -218l409 449
q-72 103 -200 103q-118 0 -190 -91.5t-72 -242.5zM245 18q146 0 220.5 86t74.5 233q0 155 -75 238.5t-218 83.5h-96v-641h94zM902 3q118 0 190 92t72 243q0 129 -52 217l-410 -449q70 -103 200 -103z" />
    <glyph glyph-name="D_Otilde" horiz-adv-x="1299" 
d="M820 797q-21 0 -32 -11t-15 -39h-17q0 48 19 75t55 27t89 -25t67 -25q41 0 47 50h17q0 -48 -19.5 -75t-54.5 -27q-33 0 -87 25t-69 25zM900 691q159 0 260 -98.5t101 -252.5q0 -156 -100.5 -254.5t-258.5 -98.5q-107 0 -188 44.5t-124 124.5q-88 -156 -336 -156h-189v677
h206q242 0 321 -151q44 78 124 121.5t184 43.5zM902 3q118 0 190 92t72 243q0 154 -72 245.5t-192 91.5q-118 0 -190 -91.5t-72 -242.5q0 -154 71.5 -246t192.5 -92zM245 18q146 0 220.5 86t74.5 233q0 155 -75 238.5t-218 83.5h-96v-641h94z" />
    <glyph glyph-name="H_B" horiz-adv-x="717" 
d="M528 362q73 -8 113 -51t40 -117q0 -93 -45.5 -143.5t-128.5 -50.5h-164v350h-192v-350h-86v677h86v-309h192v309h155q156 0 156 -157q0 -62 -31.5 -104t-94.5 -54zM475 659h-46v-291h42q45 0 70 40.5t25 113.5q0 137 -91 137zM486 18q49 0 76 45.5t27 125.5
q0 76 -29.5 118.5t-83.5 42.5h-47v-332h57z" />
    <glyph glyph-name="H_D" horiz-adv-x="955" 
d="M548 677q367 0 367 -340q0 -161 -100.5 -249t-292.5 -88h-179v342h-192v-342h-86v677h86v-317h192v317h205zM527 18q143 0 217 86t74 233q0 155 -75.5 238.5t-218.5 83.5h-95v-641h98z" />
    <glyph glyph-name="H_Dcaron" horiz-adv-x="955" 
d="M611 725h-65l-98 122l14 14l116 -91l117 90l14 -13zM548 677q367 0 367 -340q0 -161 -100.5 -249t-292.5 -88h-179v342h-192v-342h-86v677h86v-317h192v317h205zM527 18q143 0 217 86t74 233q0 155 -75.5 238.5t-218.5 83.5h-95v-641h98z" />
    <glyph glyph-name="H_E" horiz-adv-x="655" 
d="M429 18h214v-18h-300v335h-192v-335h-86v677h86v-324h192v324h280v-18h-194v-306h157v-18h-157v-317z" />
    <glyph glyph-name="H_Eacute" horiz-adv-x="655" 
d="M607 784q-85 -43 -180 -56l-6 16q93 50 143 114zM429 18h214v-18h-300v335h-192v-335h-86v677h86v-324h192v324h280v-18h-194v-306h157v-18h-157v-317z" />
    <glyph glyph-name="H_Ebreve" horiz-adv-x="655" 
d="M486 721q-53 0 -78.5 40.5t-26.5 100.5h14q6 -41 30.5 -63t60.5 -22q35 0 60.5 23.5t29.5 61.5h15q-1 -59 -27 -100t-78 -41zM429 18h214v-18h-300v335h-192v-335h-86v677h86v-324h192v324h280v-18h-194v-306h157v-18h-157v-317z" />
    <glyph glyph-name="H_Ecaron" horiz-adv-x="655" 
d="M521 725h-65l-98 122l14 14l116 -91l117 90l14 -13zM429 18h214v-18h-300v335h-192v-335h-86v677h86v-324h192v324h280v-18h-194v-306h157v-18h-157v-317z" />
    <glyph glyph-name="H_Ecircumflex" horiz-adv-x="655" 
d="M490 807l-119 -84l-12 12l96 118h71l97 -118l-13 -13zM429 18h214v-18h-300v335h-192v-335h-86v677h86v-324h192v324h280v-18h-194v-306h157v-18h-157v-317z" />
    <glyph glyph-name="H_Edieresis" horiz-adv-x="655" 
d="M415 745q-19 0 -33.5 15t-14.5 34q0 21 14.5 35.5t33.5 14.5q21 0 34.5 -14.5t13.5 -35.5q0 -20 -13.5 -34.5t-34.5 -14.5zM561 745q-19 0 -34 14.5t-15 34.5q0 21 14.5 35.5t34.5 14.5q19 0 33 -14.5t14 -35.5q0 -20 -14 -34.5t-33 -14.5zM429 18h214v-18h-300v335h-192
v-335h-86v677h86v-324h192v324h280v-18h-194v-306h157v-18h-157v-317z" />
    <glyph glyph-name="H_Edotaccent" horiz-adv-x="655" 
d="M488 741q-21 0 -36.5 15t-15.5 36q0 22 15.5 37.5t36.5 15.5t35.5 -15.5t14.5 -37.5q0 -21 -14.5 -36t-35.5 -15zM429 18h214v-18h-300v335h-192v-335h-86v677h86v-324h192v324h280v-18h-194v-306h157v-18h-157v-317z" />
    <glyph glyph-name="H_Egrave" horiz-adv-x="655" 
d="M570 740l-5 -14q-104 20 -184 74l47 73q57 -85 142 -133zM429 18h214v-18h-300v335h-192v-335h-86v677h86v-324h192v324h280v-18h-194v-306h157v-18h-157v-317z" />
    <glyph glyph-name="H_Emacron" horiz-adv-x="655" 
d="M603 786v-18h-231v18h231zM429 18h214v-18h-300v335h-192v-335h-86v677h86v-324h192v324h280v-18h-194v-306h157v-18h-157v-317z" />
    <glyph glyph-name="H_Eogonek" horiz-adv-x="655" 
d="M649 -165l9 -13q-36 -27 -84 -27q-39 0 -65 20t-26 57q0 47 38 78.5t93 49.5h-271v335h-192v-335h-86v677h86v-324h192v324h280v-18h-194v-306h157v-18h-157v-317h214v-18q-44 -22 -68.5 -55.5t-24.5 -69.5q0 -27 14 -41.5t36 -14.5q26 0 49 16z" />
    <glyph glyph-name="uni00481EBC" horiz-adv-x="655" 
d="M423 797q-29 0 -34 -50h-16q0 102 60 102q30 0 73.5 -25t53.5 -25q31 0 35 50h16q0 -102 -61 -102q-26 0 -71 25t-56 25zM429 18h214v-18h-300v335h-192v-335h-86v677h86v-324h192v324h280v-18h-194v-306h157v-18h-157v-317z" />
    <glyph glyph-name="H_F" horiz-adv-x="633" 
d="M618 659h-189v-312h143v-18h-143v-329h-86v329h-192v-329h-86v677h86v-330h192v330h275v-18z" />
    <glyph glyph-name="H_K" horiz-adv-x="706" 
d="M343 360v317h86v-677h-86v342h-192v-342h-86v677h86v-317h192zM516 410l189 -410h-99l-153 340l198 337h21z" />
    <glyph glyph-name="H_Kcommaaccent" horiz-adv-x="706" 
d="M343 360v317h86v-677h-86v342h-192v-342h-86v677h86v-317h192zM516 410l189 -410h-99l-153 340l198 337h21zM505 -45q41 0 41 -48q0 -27 -18.5 -59.5t-46.5 -56.5l-12 12q27 32 27 65q0 37 -36 43q6 44 45 44z" />
    <glyph glyph-name="H_L" horiz-adv-x="649" 
d="M429 18h210v-18h-296v342h-192v-342h-86v677h86v-317h192v317h86v-659z" />
    <glyph glyph-name="H_Lcaron" horiz-adv-x="649" 
d="M550 520q21 39 21 87q0 37 -14 70l72 24q8 -21 8 -49q0 -40 -20.5 -79.5t-52.5 -65.5zM429 18h210v-18h-296v342h-192v-342h-86v677h86v-317h192v317h86v-659z" />
    <glyph glyph-name="H_P" horiz-adv-x="683" 
d="M476 677q179 0 179 -192q0 -100 -51.5 -152t-143.5 -52h-31v-281h-86v342h-192v-342h-86v677h86v-317h192v317h133zM458 299q102 0 102 183q0 177 -100 177h-31v-360h29z" />
    <glyph glyph-name="H_R" horiz-adv-x="714" 
d="M635 217l55 -217h-91l-51 226q-14 57 -36 83.5t-54 26.5h-29v-336h-86v336h-192v-336h-86v677h86v-323h192v323h143q86 0 129.5 -44.5t43.5 -115.5q0 -77 -42.5 -121t-110.5 -52q101 -17 129 -127zM470 659h-41v-305h40q45 0 71 38.5t26 115.5q0 72 -21.5 111.5
t-74.5 39.5z" />
    <glyph glyph-name="H_Racute" horiz-adv-x="714" 
d="M602 784q-85 -43 -180 -56l-6 16q93 50 143 114zM635 217l55 -217h-91l-51 226q-14 57 -36 83.5t-54 26.5h-29v-336h-86v336h-192v-336h-86v677h86v-323h192v323h143q86 0 129.5 -44.5t43.5 -115.5q0 -77 -42.5 -121t-110.5 -52q101 -17 129 -127zM470 659h-41v-305h40
q45 0 71 38.5t26 115.5q0 72 -21.5 111.5t-74.5 39.5z" />
    <glyph glyph-name="H_Rcaron" horiz-adv-x="714" 
d="M516 725h-65l-98 122l14 14l116 -91l117 90l14 -13zM635 217l55 -217h-91l-51 226q-14 57 -36 83.5t-54 26.5h-29v-336h-86v336h-192v-336h-86v677h86v-323h192v323h143q86 0 129.5 -44.5t43.5 -115.5q0 -77 -42.5 -121t-110.5 -52q101 -17 129 -127zM470 659h-41v-305
h40q45 0 71 38.5t26 115.5q0 72 -21.5 111.5t-74.5 39.5z" />
    <glyph glyph-name="H_Rcommaaccent" horiz-adv-x="714" 
d="M635 217l55 -217h-91l-51 226q-14 57 -36 83.5t-54 26.5h-29v-336h-86v336h-192v-336h-86v677h86v-323h192v323h143q86 0 129.5 -44.5t43.5 -115.5q0 -77 -42.5 -121t-110.5 -52q101 -17 129 -127zM470 659h-41v-305h40q45 0 71 38.5t26 115.5q0 72 -21.5 111.5
t-74.5 39.5zM494 -45q41 0 41 -48q0 -27 -18.5 -59.5t-46.5 -56.5l-12 12q27 32 27 65q0 37 -36 43q6 44 45 44z" />
    <glyph glyph-name="H_U" horiz-adv-x="737" 
d="M657 677h20v-484q0 -111 -39.5 -158.5t-113.5 -47.5q-95 0 -138 50.5t-43 172.5v132h-192v-342h-86v677h86v-317h192v317h86v-489q0 -93 25.5 -135t83.5 -42q53 0 86 36.5t33 143.5v486z" />
    <glyph glyph-name="H_U_M" horiz-adv-x="1178" 
d="M1030 677h82v-677h-85v594l-170 -600h-13l-167 569v-370q0 -111 -39.5 -158.5t-113.5 -47.5q-95 0 -138 50.5t-43 172.5v132h-192v-342h-86v677h86v-317h192v317h86v-489q0 -93 25.5 -135t83.5 -42q53 0 86 36.5t33 143.5v427l-18 59h94l150 -520z" />
    <glyph glyph-name="H_U_N" horiz-adv-x="1053" 
d="M968 677h20v-677h-90l-221 572v-379q0 -111 -39.5 -158.5t-113.5 -47.5q-95 0 -138 50.5t-43 172.5v132h-192v-342h-86v677h86v-317h192v317h86v-489q0 -93 25.5 -135t83.5 -42q53 0 86 36.5t33 143.5v422l-25 64h90l246 -624v624z" />
    <glyph glyph-name="H_U_Nacute" horiz-adv-x="1053" 
d="M947 784q-85 -43 -180 -56l-6 16q93 50 143 114zM968 677h20v-677h-90l-221 570v-377q0 -111 -39.5 -158.5t-113.5 -47.5q-95 0 -138 50.5t-43 172.5v132h-192v-342h-86v677h86v-317h192v317h86v-489q0 -93 25.5 -135t83.5 -42q53 0 86 36.5t33 143.5v422l-25 64h90
l246 -624v624z" />
    <glyph glyph-name="H_U_Ncaron" horiz-adv-x="1053" 
d="M861 725h-65l-98 122l14 14l116 -91l117 90l14 -13zM968 677h20v-677h-90l-221 570v-377q0 -111 -39.5 -158.5t-113.5 -47.5q-95 0 -138 50.5t-43 172.5v132h-192v-342h-86v677h86v-317h192v317h86v-489q0 -93 25.5 -135t83.5 -42q53 0 86 36.5t33 143.5v422l-25 64h90
l246 -624v624z" />
    <glyph glyph-name="H_U_Ncommaaccent" horiz-adv-x="1053" 
d="M968 677h20v-677h-90l-221 570v-377q0 -111 -39.5 -158.5t-113.5 -47.5q-95 0 -138 50.5t-43 172.5v132h-192v-342h-86v677h86v-317h192v317h86v-489q0 -93 25.5 -135t83.5 -42q53 0 86 36.5t33 143.5v422l-25 64h90l246 -624v624zM817 -45q41 0 41 -48
q0 -27 -18.5 -59.5t-46.5 -56.5l-12 12q27 32 27 65q0 37 -36 43q6 44 45 44z" />
    <glyph glyph-name="H_U_Ntilde" horiz-adv-x="1053" 
d="M763 797q-29 0 -34 -50h-16q0 102 60 102q30 0 73.5 -25t53.5 -25q31 0 35 50h16q0 -102 -61 -102q-26 0 -71 25t-56 25zM968 677h20v-677h-90l-221 570v-377q0 -111 -39.5 -158.5t-113.5 -47.5q-95 0 -138 50.5t-43 172.5v132h-192v-342h-86v677h86v-317h192v317h86
v-489q0 -93 25.5 -135t83.5 -42q53 0 86 36.5t33 143.5v422l-25 64h90l246 -624v624z" />
    <glyph glyph-name="H_Uacute" horiz-adv-x="737" 
d="M641 784q-85 -43 -180 -56l-6 16q93 50 143 114zM657 677h20v-484q0 -111 -39.5 -158.5t-113.5 -47.5q-95 0 -138 50.5t-43 172.5v132h-192v-342h-86v677h86v-317h192v317h86v-489q0 -93 25.5 -135t83.5 -42q53 0 86 36.5t33 143.5v486z" />
    <glyph glyph-name="H_Uacute_M" horiz-adv-x="1178" 
d="M641 784q-85 -43 -180 -56l-6 16q93 50 143 114zM1030 677h82v-677h-85v594l-170 -600h-13l-167 569v-370q0 -111 -39.5 -158.5t-113.5 -47.5q-95 0 -138 50.5t-43 172.5v132h-192v-342h-86v677h86v-317h192v317h86v-489q0 -93 25.5 -135t83.5 -42q53 0 86 36.5t33 143.5
v427l-18 59h94l150 -520z" />
    <glyph glyph-name="H_Uacute_N" horiz-adv-x="1053" 
d="M641 784q-85 -43 -180 -56l-6 16q93 50 143 114zM968 677h20v-677h-90l-221 572v-379q0 -111 -39.5 -158.5t-113.5 -47.5q-95 0 -138 50.5t-43 172.5v132h-192v-342h-86v677h86v-317h192v317h86v-489q0 -93 25.5 -135t83.5 -42q53 0 86 36.5t33 143.5v422l-25 64h90
l246 -624v624z" />
    <glyph glyph-name="H_Ubreve" horiz-adv-x="737" 
d="M520 721q-53 0 -78.5 40.5t-26.5 100.5h14q6 -41 30.5 -63t60.5 -22q35 0 60.5 23.5t29.5 61.5h15q-1 -59 -27 -100t-78 -41zM657 677h20v-484q0 -111 -39.5 -158.5t-113.5 -47.5q-95 0 -138 50.5t-43 172.5v132h-192v-342h-86v677h86v-317h192v317h86v-489
q0 -93 25.5 -135t83.5 -42q53 0 86 36.5t33 143.5v486z" />
    <glyph glyph-name="H_Ubreve_M" horiz-adv-x="1178" 
d="M520 721q-53 0 -78.5 40.5t-26.5 100.5h14q6 -41 30.5 -63t60.5 -22q35 0 60.5 23.5t29.5 61.5h15q-1 -59 -27 -100t-78 -41zM1030 677h82v-677h-85v594l-170 -600h-13l-167 569v-370q0 -111 -39.5 -158.5t-113.5 -47.5q-95 0 -138 50.5t-43 172.5v132h-192v-342h-86v677
h86v-317h192v317h86v-489q0 -93 25.5 -135t83.5 -42q53 0 86 36.5t33 143.5v427l-18 59h94l150 -520z" />
    <glyph glyph-name="H_Ubreve_N" horiz-adv-x="1053" 
d="M520 721q-53 0 -78.5 40.5t-26.5 100.5h14q6 -41 30.5 -63t60.5 -22q35 0 60.5 23.5t29.5 61.5h15q-1 -59 -27 -100t-78 -41zM968 677h20v-677h-90l-221 572v-379q0 -111 -39.5 -158.5t-113.5 -47.5q-95 0 -138 50.5t-43 172.5v132h-192v-342h-86v677h86v-317h192v317h86
v-489q0 -93 25.5 -135t83.5 -42q53 0 86 36.5t33 143.5v422l-25 64h90l246 -624v624z" />
    <glyph glyph-name="uni004801D3" horiz-adv-x="737" 
d="M555 725h-65l-98 122l14 14l116 -91l117 90l14 -13zM657 677h20v-484q0 -111 -39.5 -158.5t-113.5 -47.5q-95 0 -138 50.5t-43 172.5v132h-192v-342h-86v677h86v-317h192v317h86v-489q0 -93 25.5 -135t83.5 -42q53 0 86 36.5t33 143.5v486z" />
    <glyph glyph-name="uni004801D3004D" horiz-adv-x="1178" 
d="M555 725h-65l-98 122l14 14l116 -91l117 90l14 -13zM1030 677h82v-677h-85v594l-170 -600h-13l-167 569v-370q0 -111 -39.5 -158.5t-113.5 -47.5q-95 0 -138 50.5t-43 172.5v132h-192v-342h-86v677h86v-317h192v317h86v-489q0 -93 25.5 -135t83.5 -42q53 0 86 36.5
t33 143.5v427l-18 59h94l150 -520z" />
    <glyph glyph-name="uni004801D3004E" horiz-adv-x="1053" 
d="M555 725h-65l-98 122l14 14l116 -91l117 90l14 -13zM968 677h20v-677h-90l-221 572v-379q0 -111 -39.5 -158.5t-113.5 -47.5q-95 0 -138 50.5t-43 172.5v132h-192v-342h-86v677h86v-317h192v317h86v-489q0 -93 25.5 -135t83.5 -42q53 0 86 36.5t33 143.5v422l-25 64h90
l246 -624v624z" />
    <glyph glyph-name="H_Ucircumflex" horiz-adv-x="737" 
d="M489 853h71l97 -118l-13 -13l-120 85l-119 -84l-12 12zM657 677h20v-484q0 -111 -39.5 -158.5t-113.5 -47.5q-95 0 -138 50.5t-43 172.5v132h-192v-342h-86v677h86v-317h192v317h86v-489q0 -93 25.5 -135t83.5 -42q53 0 86 36.5t33 143.5v486z" />
    <glyph glyph-name="H_Ucircumflex_M" horiz-adv-x="1178" 
d="M524 807l-119 -84l-12 12l96 118h71l97 -118l-13 -13zM1030 677h82v-677h-85v594l-170 -600h-13l-167 569v-370q0 -111 -39.5 -158.5t-113.5 -47.5q-95 0 -138 50.5t-43 172.5v132h-192v-342h-86v677h86v-317h192v317h86v-489q0 -93 25.5 -135t83.5 -42q53 0 86 36.5
t33 143.5v427l-18 59h94l150 -520z" />
    <glyph glyph-name="H_Ucircumflex_N" horiz-adv-x="1053" 
d="M524 807l-119 -84l-12 12l96 118h71l97 -118l-13 -13zM968 677h20v-677h-90l-221 572v-379q0 -111 -39.5 -158.5t-113.5 -47.5q-95 0 -138 50.5t-43 172.5v132h-192v-342h-86v677h86v-317h192v317h86v-489q0 -93 25.5 -135t83.5 -42q53 0 86 36.5t33 143.5v422l-25 64h90
l246 -624v624z" />
    <glyph glyph-name="H_Udieresis" horiz-adv-x="737" 
d="M401 794q0 21 14.5 35.5t33.5 14.5q21 0 34.5 -14.5t13.5 -35.5q0 -20 -13.5 -34.5t-34.5 -14.5q-19 0 -33.5 15t-14.5 34zM546 794q0 21 14.5 35.5t34.5 14.5q19 0 33 -14.5t14 -35.5q0 -20 -14 -34.5t-33 -14.5t-34 14.5t-15 34.5zM657 677h20v-484
q0 -111 -39.5 -158.5t-113.5 -47.5q-95 0 -138 50.5t-43 172.5v132h-192v-342h-86v677h86v-317h192v317h86v-489q0 -93 25.5 -135t83.5 -42q53 0 86 36.5t33 143.5v486z" />
    <glyph glyph-name="H_Udieresis_M" horiz-adv-x="1178" 
d="M449 745q-19 0 -33.5 15t-14.5 34q0 21 14.5 35.5t33.5 14.5q21 0 34.5 -14.5t13.5 -35.5q0 -20 -13.5 -34.5t-34.5 -14.5zM595 745q-19 0 -34 14.5t-15 34.5q0 21 14.5 35.5t34.5 14.5q19 0 33 -14.5t14 -35.5q0 -20 -14 -34.5t-33 -14.5zM1030 677h82v-677h-85v594
l-170 -600h-13l-167 569v-370q0 -111 -39.5 -158.5t-113.5 -47.5q-95 0 -138 50.5t-43 172.5v132h-192v-342h-86v677h86v-317h192v317h86v-489q0 -93 25.5 -135t83.5 -42q53 0 86 36.5t33 143.5v427l-18 59h94l150 -520z" />
    <glyph glyph-name="H_Udieresis_N" horiz-adv-x="1053" 
d="M449 745q-19 0 -33.5 15t-14.5 34q0 21 14.5 35.5t33.5 14.5q21 0 34.5 -14.5t13.5 -35.5q0 -20 -13.5 -34.5t-34.5 -14.5zM595 745q-19 0 -34 14.5t-15 34.5q0 21 14.5 35.5t34.5 14.5q19 0 33 -14.5t14 -35.5q0 -20 -14 -34.5t-33 -14.5zM968 677h20v-677h-90l-221 572
v-379q0 -111 -39.5 -158.5t-113.5 -47.5q-95 0 -138 50.5t-43 172.5v132h-192v-342h-86v677h86v-317h192v317h86v-489q0 -93 25.5 -135t83.5 -42q53 0 86 36.5t33 143.5v422l-25 64h90l246 -624v624z" />
    <glyph glyph-name="H_Ugrave" horiz-adv-x="737" 
d="M462 873q57 -85 142 -133l-5 -14q-104 20 -184 74zM657 677h20v-484q0 -111 -39.5 -158.5t-113.5 -47.5q-95 0 -138 50.5t-43 172.5v132h-192v-342h-86v677h86v-317h192v317h86v-489q0 -93 25.5 -135t83.5 -42q53 0 86 36.5t33 143.5v486z" />
    <glyph glyph-name="H_Ugrave_M" horiz-adv-x="1178" 
d="M604 740l-5 -14q-104 20 -184 74l47 73q57 -85 142 -133zM1030 677h82v-677h-85v594l-170 -600h-13l-167 569v-370q0 -111 -39.5 -158.5t-113.5 -47.5q-95 0 -138 50.5t-43 172.5v132h-192v-342h-86v677h86v-317h192v317h86v-489q0 -93 25.5 -135t83.5 -42q53 0 86 36.5
t33 143.5v427l-18 59h94l150 -520z" />
    <glyph glyph-name="H_Ugrave_N" horiz-adv-x="1053" 
d="M604 740l-5 -14q-104 20 -184 74l47 73q57 -85 142 -133zM968 677h20v-677h-90l-221 572v-379q0 -111 -39.5 -158.5t-113.5 -47.5q-95 0 -138 50.5t-43 172.5v132h-192v-342h-86v677h86v-317h192v317h86v-489q0 -93 25.5 -135t83.5 -42q53 0 86 36.5t33 143.5v422l-25 64
h90l246 -624v624z" />
    <glyph glyph-name="H_Uhungarumlaut" horiz-adv-x="737" 
d="M462 737l-13 11l74 148l65 -39zM559 726l-13 13l115 121l44 -59zM657 677h20v-484q0 -111 -39.5 -158.5t-113.5 -47.5q-95 0 -138 50.5t-43 172.5v132h-192v-342h-86v677h86v-317h192v317h86v-489q0 -93 25.5 -135t83.5 -42q53 0 86 36.5t33 143.5v486z" />
    <glyph glyph-name="H_Uhungarumlaut_M" horiz-adv-x="1178" 
d="M588 857l-126 -120l-13 11l74 148zM559 726l-13 13l115 121l44 -59zM1030 677h82v-677h-85v594l-170 -600h-13l-167 569v-370q0 -111 -39.5 -158.5t-113.5 -47.5q-95 0 -138 50.5t-43 172.5v132h-192v-342h-86v677h86v-317h192v317h86v-489q0 -93 25.5 -135t83.5 -42
q53 0 86 36.5t33 143.5v427l-18 59h94l150 -520z" />
    <glyph glyph-name="H_Uhungarumlaut_N" horiz-adv-x="1053" 
d="M588 857l-126 -120l-13 11l74 148zM559 726l-13 13l115 121l44 -59zM968 677h20v-677h-90l-221 572v-379q0 -111 -39.5 -158.5t-113.5 -47.5q-95 0 -138 50.5t-43 172.5v132h-192v-342h-86v677h86v-317h192v317h86v-489q0 -93 25.5 -135t83.5 -42q53 0 86 36.5t33 143.5
v422l-25 64h90l246 -624v624z" />
    <glyph glyph-name="H_Umacron" horiz-adv-x="737" 
d="M406 768v18h231v-18h-231zM657 677h20v-484q0 -111 -39.5 -158.5t-113.5 -47.5q-95 0 -138 50.5t-43 172.5v132h-192v-342h-86v677h86v-317h192v317h86v-489q0 -93 25.5 -135t83.5 -42q53 0 86 36.5t33 143.5v486z" />
    <glyph glyph-name="H_Umacron_M" horiz-adv-x="1178" 
d="M637 786v-18h-231v18h231zM1030 677h82v-677h-85v594l-170 -600h-13l-167 569v-370q0 -111 -39.5 -158.5t-113.5 -47.5q-95 0 -138 50.5t-43 172.5v132h-192v-342h-86v677h86v-317h192v317h86v-489q0 -93 25.5 -135t83.5 -42q53 0 86 36.5t33 143.5v427l-18 59h94
l150 -520z" />
    <glyph glyph-name="H_Umacron_N" horiz-adv-x="1053" 
d="M637 786v-18h-231v18h231zM968 677h20v-677h-90l-221 572v-379q0 -111 -39.5 -158.5t-113.5 -47.5q-95 0 -138 50.5t-43 172.5v132h-192v-342h-86v677h86v-317h192v317h86v-489q0 -93 25.5 -135t83.5 -42q53 0 86 36.5t33 143.5v422l-25 64h90l246 -624v624z" />
    <glyph glyph-name="H_Uogonek" horiz-adv-x="737" 
d="M657 677h20v-484q0 -171 -102 -200q-70 -45 -70 -111q0 -27 14 -41.5t36 -14.5q26 0 49 16l9 -13q-36 -27 -84 -27q-39 0 -65 20t-26 57q0 65 82 108q-92 1 -134.5 52t-42.5 171v132h-192v-342h-86v677h86v-317h192v317h86v-489q0 -93 25.5 -135t83.5 -42q53 0 86 36.5
t33 143.5v486z" />
    <glyph glyph-name="H_Uogonek_M" horiz-adv-x="1178" 
d="M1030 677h82v-677h-85v594l-170 -600h-13l-167 569v-370q0 -171 -102 -200q-70 -45 -70 -111q0 -27 14 -41.5t36 -14.5q26 0 49 16l9 -13q-36 -27 -84 -27q-39 0 -65 20t-26 57q0 65 82 108q-92 1 -134.5 52t-42.5 171v132h-192v-342h-86v677h86v-317h192v317h86v-489
q0 -93 25.5 -135t83.5 -42q53 0 86 36.5t33 143.5v427l-18 59h94l150 -520z" />
    <glyph glyph-name="H_Uogonek_N" horiz-adv-x="1053" 
d="M968 677h20v-677h-90l-221 572v-379q0 -171 -102 -200q-70 -45 -70 -111q0 -27 14 -41.5t36 -14.5q26 0 49 16l9 -13q-36 -27 -84 -27q-39 0 -65 20t-26 57q0 65 82 108q-92 1 -134.5 52t-42.5 171v132h-192v-342h-86v677h86v-317h192v317h86v-489q0 -93 25.5 -135
t83.5 -42q53 0 86 36.5t33 143.5v422l-25 64h90l246 -624v624z" />
    <glyph glyph-name="H_Uring" horiz-adv-x="737" 
d="M522 874q34 0 54.5 -21t20.5 -56q0 -33 -21 -54.5t-54 -21.5q-34 0 -55 20.5t-21 55.5q0 34 21 55.5t55 21.5zM574 797q0 27 -14.5 43.5t-37.5 16.5q-24 0 -38.5 -16.5t-14.5 -43.5t14.5 -43.5t38.5 -16.5q23 0 37.5 16.5t14.5 43.5zM657 677h20v-484
q0 -111 -39.5 -158.5t-113.5 -47.5q-95 0 -138 50.5t-43 172.5v132h-192v-342h-86v677h86v-317h192v317h86v-489q0 -93 25.5 -135t83.5 -42q53 0 86 36.5t33 143.5v486z" />
    <glyph glyph-name="H_Uring_M" horiz-adv-x="1178" 
d="M522 721q-34 0 -55 20.5t-21 55.5q0 34 21 55.5t55 21.5t54.5 -21t20.5 -56q0 -33 -21 -54.5t-54 -21.5zM522 857q-24 0 -38.5 -16.5t-14.5 -43.5t14.5 -43.5t38.5 -16.5q23 0 37.5 16.5t14.5 43.5t-14.5 43.5t-37.5 16.5zM1030 677h82v-677h-85v594l-170 -600h-13
l-167 569v-370q0 -111 -39.5 -158.5t-113.5 -47.5q-95 0 -138 50.5t-43 172.5v132h-192v-342h-86v677h86v-317h192v317h86v-489q0 -93 25.5 -135t83.5 -42q53 0 86 36.5t33 143.5v427l-18 59h94l150 -520z" />
    <glyph glyph-name="H_Uring_N" horiz-adv-x="1053" 
d="M522 721q-34 0 -55 20.5t-21 55.5q0 34 21 55.5t55 21.5t54.5 -21t20.5 -56q0 -33 -21 -54.5t-54 -21.5zM522 857q-24 0 -38.5 -16.5t-14.5 -43.5t14.5 -43.5t38.5 -16.5q23 0 37.5 16.5t14.5 43.5t-14.5 43.5t-37.5 16.5zM968 677h20v-677h-90l-221 572v-379
q0 -111 -39.5 -158.5t-113.5 -47.5q-95 0 -138 50.5t-43 172.5v132h-192v-342h-86v677h86v-317h192v317h86v-489q0 -93 25.5 -135t83.5 -42q53 0 86 36.5t33 143.5v422l-25 64h90l246 -624v624z" />
    <glyph glyph-name="H_Utilde" horiz-adv-x="737" 
d="M645 849q0 -102 -61 -102q-26 0 -70.5 25t-56.5 25q-29 0 -34 -50h-16q0 102 60 102q30 0 73.5 -25t53.5 -25q31 0 35 50h16zM657 677h20v-484q0 -111 -39.5 -158.5t-113.5 -47.5q-95 0 -138 50.5t-43 172.5v132h-192v-342h-86v677h86v-317h192v317h86v-489
q0 -93 25.5 -135t83.5 -42q53 0 86 36.5t33 143.5v486z" />
    <glyph glyph-name="H_Utilde_M" horiz-adv-x="1178" 
d="M457 797q-29 0 -34 -50h-16q0 102 60 102q30 0 73.5 -25t53.5 -25q31 0 35 50h16q0 -102 -61 -102q-26 0 -70.5 25t-56.5 25zM1030 677h82v-677h-85v594l-170 -600h-13l-167 569v-370q0 -111 -39.5 -158.5t-113.5 -47.5q-95 0 -138 50.5t-43 172.5v132h-192v-342h-86v677
h86v-317h192v317h86v-489q0 -93 25.5 -135t83.5 -42q53 0 86 36.5t33 143.5v427l-18 59h94l150 -520z" />
    <glyph glyph-name="H_Utilde_N" horiz-adv-x="1053" 
d="M457 797q-29 0 -34 -50h-16q0 102 60 102q30 0 73.5 -25t53.5 -25q31 0 35 50h16q0 -102 -61 -102q-26 0 -70.5 25t-56.5 25zM968 677h20v-677h-90l-221 572v-379q0 -111 -39.5 -158.5t-113.5 -47.5q-95 0 -138 50.5t-43 172.5v132h-192v-342h-86v677h86v-317h192v317h86
v-489q0 -93 25.5 -135t83.5 -42q53 0 86 36.5t33 143.5v422l-25 64h90l246 -624v624z" />
    <glyph glyph-name="M_B" horiz-adv-x="811" 
d="M622 362q73 -8 112.5 -51t39.5 -117q0 -93 -45 -143.5t-128 -50.5h-164v594l-170 -600h-13l-168 569v-563h-20v619l-17 58h94l149 -522l148 522h152q156 0 156 -157q0 -62 -31.5 -104t-94.5 -54zM569 659h-47v-291h43q45 0 70 40.5t25 113.5q0 137 -91 137zM580 18
q49 0 76 45.5t27 125.5q0 76 -29.5 118.5t-83.5 42.5h-48v-332h58z" />
    <glyph glyph-name="M_D" horiz-adv-x="1049" 
d="M642 677q367 0 367 -340q0 -161 -99.5 -249t-288.5 -88h-184v594l-170 -600h-13l-168 569v-563h-20v619l-17 58h94l149 -522l148 522h202zM621 18q143 0 217 86t74 233q0 155 -75.5 238.5t-218.5 83.5h-96v-641h99z" />
    <glyph glyph-name="M_Dcaron" horiz-adv-x="1049" 
d="M705 725h-65l-98 122l14 14l116 -91l117 90l14 -13zM642 677q367 0 367 -340q0 -161 -99.5 -249t-288.5 -88h-184v594l-170 -600h-13l-168 569v-563h-20v619l-17 58h94l149 -522l148 522h202zM621 18q143 0 217 86t74 233q0 155 -75.5 238.5t-218.5 83.5h-96v-641h99z
" />
    <glyph glyph-name="M_E" horiz-adv-x="749" 
d="M522 18h215v-18h-300v594l-170 -600h-13l-168 569v-563h-20v619l-17 58h94l149 -522l148 522h277v-18h-195v-306h158v-18h-158v-317z" />
    <glyph glyph-name="M_Eacute" horiz-adv-x="749" 
d="M701 784q-85 -43 -180 -56l-6 16q93 50 143 114zM522 18h215v-18h-300v594l-170 -600h-13l-168 569v-563h-20v619l-17 58h94l149 -522l148 522h277v-18h-195v-306h158v-18h-158v-317z" />
    <glyph glyph-name="M_Ebreve" horiz-adv-x="749" 
d="M580 721q-53 0 -78.5 40.5t-26.5 100.5h14q6 -41 30.5 -63t60.5 -22q35 0 60.5 23.5t29.5 61.5h15q-1 -59 -27 -100t-78 -41zM522 18h215v-18h-300v594l-170 -600h-13l-168 569v-563h-20v619l-17 58h94l149 -522l148 522h277v-18h-195v-306h158v-18h-158v-317z" />
    <glyph glyph-name="M_Ecaron" horiz-adv-x="749" 
d="M615 725h-65l-98 122l14 14l116 -91l117 90l14 -13zM522 18h215v-18h-300v594l-170 -600h-13l-168 569v-563h-20v619l-17 58h94l149 -522l148 522h277v-18h-195v-306h158v-18h-158v-317z" />
    <glyph glyph-name="M_Ecircumflex" horiz-adv-x="749" 
d="M584 807l-119 -84l-12 12l96 118h71l97 -118l-13 -13zM522 18h215v-18h-300v594l-170 -600h-13l-168 569v-563h-20v619l-17 58h94l149 -522l148 522h277v-18h-195v-306h158v-18h-158v-317z" />
    <glyph glyph-name="M_Edieresis" horiz-adv-x="749" 
d="M509 745q-19 0 -33.5 15t-14.5 34q0 21 14.5 35.5t33.5 14.5q21 0 34.5 -14.5t13.5 -35.5q0 -20 -13.5 -34.5t-34.5 -14.5zM655 745q-19 0 -34 14.5t-15 34.5q0 21 14.5 35.5t34.5 14.5q19 0 33 -14.5t14 -35.5q0 -20 -14 -34.5t-33 -14.5zM522 18h215v-18h-300v594
l-170 -600h-13l-168 569v-563h-20v619l-17 58h94l149 -522l148 522h277v-18h-195v-306h158v-18h-158v-317z" />
    <glyph glyph-name="M_Edotaccent" horiz-adv-x="749" 
d="M582 741q-21 0 -36.5 15t-15.5 36q0 22 15.5 37.5t36.5 15.5t35.5 -15.5t14.5 -37.5q0 -21 -14.5 -36t-35.5 -15zM522 18h215v-18h-300v594l-170 -600h-13l-168 569v-563h-20v619l-17 58h94l149 -522l148 522h277v-18h-195v-306h158v-18h-158v-317z" />
    <glyph glyph-name="M_Egrave" horiz-adv-x="749" 
d="M664 740l-5 -14q-104 20 -184 74l47 73q57 -85 142 -133zM522 18h215v-18h-300v594l-170 -600h-13l-168 569v-563h-20v619l-17 58h94l149 -522l148 522h277v-18h-195v-306h158v-18h-158v-317z" />
    <glyph glyph-name="M_Emacron" horiz-adv-x="749" 
d="M697 786v-18h-231v18h231zM522 18h215v-18h-300v594l-170 -600h-13l-168 569v-563h-20v619l-17 58h94l149 -522l148 522h277v-18h-195v-306h158v-18h-158v-317z" />
    <glyph glyph-name="M_Eogonek" horiz-adv-x="749" 
d="M743 -165l9 -13q-36 -27 -84 -27q-39 0 -65 20t-26 57q0 47 38 78.5t93 49.5h-271v594l-170 -600h-13l-168 569v-563h-20v619l-17 58h94l149 -522l148 522h277v-18h-195v-306h158v-18h-158v-317h215v-18q-44 -22 -68.5 -55.5t-24.5 -69.5q0 -27 14 -41.5t36 -14.5
q26 0 49 16z" />
    <glyph glyph-name="uni004D1EBC" horiz-adv-x="749" 
d="M517 797q-29 0 -34 -50h-16q0 102 60 102q30 0 73.5 -25t53.5 -25q31 0 35 50h16q0 -102 -61 -102q-26 0 -71 25t-56 25zM522 18h215v-18h-300v594l-170 -600h-13l-168 569v-563h-20v619l-17 58h94l149 -522l148 522h277v-18h-195v-306h158v-18h-158v-317z" />
    <glyph glyph-name="M_F" horiz-adv-x="727" 
d="M712 659h-190v-310h144v-18h-144v-331h-85v594l-170 -600h-13l-168 569v-563h-20v619l-17 58h94l149 -522l148 522h272v-18z" />
    <glyph glyph-name="M_H" horiz-adv-x="865" 
d="M714 677h86v-677h-86v342h-192v-342h-85v594l-170 -600h-13l-168 569v-563h-20v619l-17 58h94l149 -522l148 522h82v-317h192v317z" />
    <glyph glyph-name="M_K" horiz-adv-x="800" 
d="M292 155l148 522h82v-677h-85v594l-170 -600h-13l-168 569v-563h-20v619l-17 58h94zM610 410l189 -410h-100l-152 340l198 337h21z" />
    <glyph glyph-name="M_Kcommaaccent" horiz-adv-x="800" 
d="M292 155l148 522h82v-677h-85v594l-170 -600h-13l-168 569v-563h-20v619l-17 58h94zM610 410l189 -410h-100l-152 340l198 337h21zM598 -45q41 0 41 -48q0 -27 -18.5 -59.5t-46.5 -56.5l-12 12q27 32 27 65q0 37 -36 43q6 44 45 44z" />
    <glyph glyph-name="M_L" horiz-adv-x="743" 
d="M522 18h210v-18h-295v594l-170 -600h-13l-168 569v-563h-20v619l-17 58h94l149 -522l148 522h82v-659z" />
    <glyph glyph-name="M_Lacute" horiz-adv-x="743" 
d="M632 784q-85 -43 -180 -56l-6 16q93 50 143 114zM522 18h210v-18h-295v594l-170 -600h-13l-168 569v-563h-20v619l-17 58h94l149 -522l148 522h82v-659z" />
    <glyph glyph-name="M_Lcaron" horiz-adv-x="767" 
d="M657 507l-14 13q21 39 21 87q0 37 -14 70l72 24q8 -21 8 -49q0 -40 -20.5 -79.5t-52.5 -65.5zM522 18h210v-18h-295v594l-170 -600h-13l-168 569v-563h-20v619l-17 58h94l149 -522l148 522h82v-659z" />
    <glyph glyph-name="M_Lcommaaccent" horiz-adv-x="743" 
d="M522 18h210v-18h-295v594l-170 -600h-13l-168 569v-563h-20v619l-17 58h94l149 -522l148 522h82v-659zM553 -45q41 0 41 -48q0 -27 -18.5 -59.5t-46.5 -56.5l-12 12q27 32 27 65q0 37 -36 43q6 44 45 44z" />
    <glyph glyph-name="M_P" horiz-adv-x="777" 
d="M570 677q179 0 179 -192q0 -100 -51.5 -152t-144.5 -52h-31v-281h-85v594l-170 -600h-13l-168 569v-563h-20v619l-17 58h94l149 -522l148 522h130zM552 299q48 0 75 46t27 137q0 177 -100 177h-32v-360h30z" />
    <glyph glyph-name="M_R" horiz-adv-x="803" 
d="M729 217l55 -217h-91l-51 226q-26 110 -90 110h-30v-336h-85v594l-170 -600h-13l-168 569v-563h-20v619l-17 58h94l149 -522l148 522h140q86 0 129.5 -44.5t43.5 -115.5q0 -76 -42.5 -120t-109.5 -53q99 -17 128 -127zM563 659h-41v-305h40q45 0 71.5 39.5t26.5 116.5
q0 71 -21.5 110t-75.5 39z" />
    <glyph glyph-name="M_Racute" horiz-adv-x="803" 
d="M696 784q-85 -43 -180 -56l-6 16q93 50 143 114zM729 217l55 -217h-91l-51 226q-26 110 -90 110h-30v-336h-85v594l-170 -600h-13l-168 569v-563h-20v619l-17 58h94l149 -522l148 522h140q86 0 129.5 -44.5t43.5 -115.5q0 -76 -42.5 -120t-109.5 -53q99 -17 128 -127z
M563 659h-41v-305h40q45 0 71.5 39.5t26.5 116.5q0 71 -21.5 110t-75.5 39z" />
    <glyph glyph-name="M_Rcaron" horiz-adv-x="803" 
d="M610 725h-65l-98 122l14 14l116 -91l117 90l14 -13zM729 217l55 -217h-91l-51 226q-26 110 -90 110h-30v-336h-85v594l-170 -600h-13l-168 569v-563h-20v619l-17 58h94l149 -522l148 522h140q86 0 129.5 -44.5t43.5 -115.5q0 -76 -42.5 -120t-109.5 -53q99 -17 128 -127z
M563 659h-41v-305h40q45 0 71.5 39.5t26.5 116.5q0 71 -21.5 110t-75.5 39z" />
    <glyph glyph-name="M_Rcommaaccent" horiz-adv-x="803" 
d="M729 217l55 -217h-91l-51 226q-26 110 -90 110h-30v-336h-85v594l-170 -600h-13l-168 569v-563h-20v619l-17 58h94l149 -522l148 522h140q86 0 129.5 -44.5t43.5 -115.5q0 -76 -42.5 -120t-109.5 -53q99 -17 128 -127zM563 659h-41v-305h40q45 0 71.5 39.5t26.5 116.5
q0 71 -21.5 110t-75.5 39zM588 -45q41 0 41 -48q0 -27 -18.5 -59.5t-46.5 -56.5l-12 12q27 32 27 65q0 37 -36 43q6 44 45 44z" />
    <glyph glyph-name="M_U" horiz-adv-x="835" 
d="M751 677h20v-484q0 -206 -153 -206q-95 0 -138 50.5t-43 172.5v384l-170 -600h-13l-167 568v-562h-20v616l-18 61h94l150 -520l147 520h82v-489q0 -93 26 -135t84 -42q53 0 86 36.5t33 143.5v486z" />
    <glyph glyph-name="M_U_M" horiz-adv-x="1271" 
d="M1123 677h83v-677h-86v591l-169 -597h-14l-166 565v-366q-1 -111 -40.5 -158.5t-113.5 -47.5q-94 0 -137 50.5t-43 172.5v384l-170 -600h-13l-168 569v-563h-20v621l-17 56h94l149 -522l148 522h82v-489q0 -93 25.5 -135t83.5 -42q24 0 42.5 6t37.5 23.5t29.5 55.5
t10.5 95v425l-18 61h94l149 -521z" />
    <glyph glyph-name="M_U_N" horiz-adv-x="1147" 
d="M1062 677h20v-677h-90l-221 570v-377q-1 -111 -40.5 -158.5t-113.5 -47.5q-94 0 -137 50.5t-43 172.5v383l-170 -599h-13l-168 566v-560h-20v622l-17 55h94l149 -522l148 522h82v-489q0 -93 25.5 -135t83.5 -42q24 0 42.5 6t37.5 23.5t29.5 55.5t10.5 95v422l-25 64h90
l246 -624v624z" />
    <glyph glyph-name="M_U_Nacute" horiz-adv-x="1147" 
d="M1041 784q-85 -43 -180 -56l-6 16q93 50 143 114zM1062 677h20v-677h-90l-221 571v-378q0 -111 -40 -158.5t-114 -47.5q-94 0 -137 50.5t-43 172.5v384l-170 -600h-13l-168 568v-562h-20v621l-17 56h94l149 -522l148 522h82v-489q0 -93 25.5 -135t83.5 -42q24 0 42.5 6
t37.5 23.5t29.5 55.5t10.5 95v420l-25 66h90l246 -624v624z" />
    <glyph glyph-name="M_U_Ncaron" horiz-adv-x="1147" 
d="M955 725h-65l-98 122l14 14l116 -91l117 90l14 -13zM1062 677h20v-677h-90l-221 571v-378q0 -111 -40 -158.5t-114 -47.5q-94 0 -137 50.5t-43 172.5v384l-170 -600h-13l-168 568v-562h-20v621l-17 56h94l149 -522l148 522h82v-489q0 -93 25.5 -135t83.5 -42q24 0 42.5 6
t37.5 23.5t29.5 55.5t10.5 95v420l-25 66h90l246 -624v624z" />
    <glyph glyph-name="M_U_Ncommaaccent" horiz-adv-x="1147" 
d="M1062 677h20v-677h-90l-221 571v-378q0 -111 -40 -158.5t-114 -47.5q-94 0 -137 50.5t-43 172.5v384l-170 -600h-13l-168 568v-562h-20v621l-17 56h94l149 -522l148 522h82v-489q0 -93 25.5 -135t83.5 -42q24 0 42.5 6t37.5 23.5t29.5 55.5t10.5 95v420l-25 66h90
l246 -624v624zM910 -45q41 0 41 -48q0 -27 -18.5 -59.5t-46.5 -56.5l-12 12q27 32 27 65q0 37 -36 43q6 44 45 44z" />
    <glyph glyph-name="M_U_Ntilde" horiz-adv-x="1147" 
d="M857 797q-29 0 -34 -50h-16q0 102 60 102q30 0 73.5 -25t53.5 -25q31 0 35 50h16q0 -102 -61 -102q-26 0 -71 25t-56 25zM1062 677h20v-677h-90l-221 571v-378q0 -111 -40 -158.5t-114 -47.5q-94 0 -137 50.5t-43 172.5v384l-170 -600h-13l-168 568v-562h-20v621l-17 56
h94l149 -522l148 522h82v-489q0 -93 25.5 -135t83.5 -42q24 0 42.5 6t37.5 23.5t29.5 55.5t10.5 95v420l-25 66h90l246 -624v624z" />
    <glyph glyph-name="M_Uacute" horiz-adv-x="835" 
d="M735 784q-85 -43 -180 -56l-6 16q93 50 143 114zM751 677h20v-484q0 -206 -153 -206q-95 0 -138 50.5t-43 172.5v384l-170 -600h-13l-167 568v-562h-20v616l-18 61h94l150 -520l147 520h82v-489q0 -93 26 -135t84 -42q53 0 86 36.5t33 143.5v486z" />
    <glyph glyph-name="M_Uacute_M" horiz-adv-x="1271" 
d="M735 784q-85 -43 -180 -56l-6 16q93 50 143 114zM1123 677h83v-677h-86v591l-169 -597h-14l-166 565v-366q-1 -111 -40.5 -158.5t-113.5 -47.5q-94 0 -137 50.5t-43 172.5v384l-170 -600h-13l-168 569v-563h-20v621l-17 56h94l149 -522l148 522h82v-489q0 -93 25.5 -135
t83.5 -42q24 0 42.5 6t37.5 23.5t29.5 55.5t10.5 95v425l-18 61h94l149 -521z" />
    <glyph glyph-name="M_Uacute_N" horiz-adv-x="1147" 
d="M735 784q-85 -43 -180 -56l-6 16q93 50 143 114zM1062 677h20v-677h-90l-221 570v-377q-1 -111 -40.5 -158.5t-113.5 -47.5q-94 0 -137 50.5t-43 172.5v383l-170 -599h-13l-168 566v-560h-20v622l-17 55h94l149 -522l148 522h82v-489q0 -93 25.5 -135t83.5 -42
q24 0 42.5 6t37.5 23.5t29.5 55.5t10.5 95v422l-25 64h90l246 -624v624z" />
    <glyph glyph-name="M_Ubreve" horiz-adv-x="835" 
d="M614 721q-53 0 -78.5 40.5t-26.5 100.5h14q6 -41 30.5 -63t60.5 -22q35 0 60.5 23.5t29.5 61.5h15q-1 -59 -27 -100t-78 -41zM751 677h20v-484q0 -206 -153 -206q-95 0 -138 50.5t-43 172.5v384l-170 -600h-13l-167 568v-562h-20v616l-18 61h94l150 -520l147 520h82v-489
q0 -93 26 -135t84 -42q53 0 86 36.5t33 143.5v486z" />
    <glyph glyph-name="M_Ubreve_M" horiz-adv-x="1271" 
d="M614 721q-53 0 -78.5 40.5t-26.5 100.5h14q6 -41 30.5 -63t60.5 -22q35 0 60.5 23.5t29.5 61.5h15q-1 -59 -27 -100t-78 -41zM1123 677h83v-677h-86v591l-169 -597h-14l-166 565v-366q-1 -111 -40.5 -158.5t-113.5 -47.5q-94 0 -137 50.5t-43 172.5v384l-170 -600h-13
l-168 569v-563h-20v621l-17 56h94l149 -522l148 522h82v-489q0 -93 25.5 -135t83.5 -42q24 0 42.5 6t37.5 23.5t29.5 55.5t10.5 95v425l-18 61h94l149 -521z" />
    <glyph glyph-name="M_Ubreve_N" horiz-adv-x="1147" 
d="M614 721q-53 0 -78.5 40.5t-26.5 100.5h14q6 -41 30.5 -63t60.5 -22q35 0 60.5 23.5t29.5 61.5h15q-1 -59 -27 -100t-78 -41zM1062 677h20v-677h-90l-221 570v-377q-1 -111 -40.5 -158.5t-113.5 -47.5q-94 0 -137 50.5t-43 172.5v383l-170 -599h-13l-168 566v-560h-20
v622l-17 55h94l149 -522l148 522h82v-489q0 -93 25.5 -135t83.5 -42q24 0 42.5 6t37.5 23.5t29.5 55.5t10.5 95v422l-25 64h90l246 -624v624z" />
    <glyph glyph-name="uni004D01D3" horiz-adv-x="835" 
d="M649 725h-65l-98 122l14 14l116 -91l117 90l14 -13zM751 677h20v-484q0 -206 -153 -206q-95 0 -138 50.5t-43 172.5v384l-170 -600h-13l-167 568v-562h-20v616l-18 61h94l150 -520l147 520h82v-489q0 -93 26 -135t84 -42q53 0 86 36.5t33 143.5v486z" />
    <glyph glyph-name="uni004D01D3004D" horiz-adv-x="1271" 
d="M649 725h-65l-98 122l14 14l116 -91l117 90l14 -13zM1123 677h83v-677h-86v591l-169 -597h-14l-166 565v-366q-1 -111 -40.5 -158.5t-113.5 -47.5q-94 0 -137 50.5t-43 172.5v384l-170 -600h-13l-168 569v-563h-20v621l-17 56h94l149 -522l148 522h82v-489
q0 -93 25.5 -135t83.5 -42q24 0 42.5 6t37.5 23.5t29.5 55.5t10.5 95v425l-18 61h94l149 -521z" />
    <glyph glyph-name="uni004D01D3004E" horiz-adv-x="1147" 
d="M649 725h-65l-98 122l14 14l116 -91l117 90l14 -13zM1062 677h20v-677h-90l-221 570v-377q-1 -111 -40.5 -158.5t-113.5 -47.5q-94 0 -137 50.5t-43 172.5v383l-170 -599h-13l-168 566v-560h-20v622l-17 55h94l149 -522l148 522h82v-489q0 -93 25.5 -135t83.5 -42
q24 0 42.5 6t37.5 23.5t29.5 55.5t10.5 95v422l-25 64h90l246 -624v624z" />
    <glyph glyph-name="M_Ucircumflex" horiz-adv-x="835" 
d="M618 807l-119 -84l-12 12l96 118h71l97 -118l-13 -13zM751 677h20v-484q0 -206 -153 -206q-95 0 -138 50.5t-43 172.5v384l-170 -600h-13l-167 568v-562h-20v616l-18 61h94l150 -520l147 520h82v-489q0 -93 26 -135t84 -42q53 0 86 36.5t33 143.5v486z" />
    <glyph glyph-name="M_Ucircumflex_M" horiz-adv-x="1271" 
d="M618 807l-119 -84l-12 12l96 118h71l97 -118l-13 -13zM1123 677h83v-677h-86v591l-169 -597h-14l-166 565v-366q-1 -111 -40.5 -158.5t-113.5 -47.5q-94 0 -137 50.5t-43 172.5v384l-170 -600h-13l-168 569v-563h-20v621l-17 56h94l149 -522l148 522h82v-489
q0 -93 25.5 -135t83.5 -42q24 0 42.5 6t37.5 23.5t29.5 55.5t10.5 95v425l-18 61h94l149 -521z" />
    <glyph glyph-name="M_Ucircumflex_N" horiz-adv-x="1147" 
d="M618 807l-119 -84l-12 12l96 118h71l97 -118l-13 -13zM1062 677h20v-677h-90l-221 570v-377q-1 -111 -40.5 -158.5t-113.5 -47.5q-94 0 -137 50.5t-43 172.5v383l-170 -599h-13l-168 566v-560h-20v622l-17 55h94l149 -522l148 522h82v-489q0 -93 25.5 -135t83.5 -42
q24 0 42.5 6t37.5 23.5t29.5 55.5t10.5 95v422l-25 64h90l246 -624v624z" />
    <glyph glyph-name="M_Udieresis" horiz-adv-x="835" 
d="M543 745q-19 0 -33.5 15t-14.5 34q0 21 14.5 35.5t33.5 14.5q21 0 34.5 -14.5t13.5 -35.5q0 -20 -13.5 -34.5t-34.5 -14.5zM689 745q-19 0 -34 14.5t-15 34.5q0 21 14.5 35.5t34.5 14.5q19 0 33 -14.5t14 -35.5q0 -20 -14 -34.5t-33 -14.5zM751 677h20v-484
q0 -206 -153 -206q-95 0 -138 50.5t-43 172.5v384l-170 -600h-13l-167 568v-562h-20v616l-18 61h94l150 -520l147 520h82v-489q0 -93 26 -135t84 -42q53 0 86 36.5t33 143.5v486z" />
    <glyph glyph-name="M_Udieresis_M" horiz-adv-x="1271" 
d="M543 745q-19 0 -33.5 15t-14.5 34q0 21 14.5 35.5t33.5 14.5q21 0 34.5 -14.5t13.5 -35.5q0 -20 -13.5 -34.5t-34.5 -14.5zM689 745q-19 0 -34 14.5t-15 34.5q0 21 14.5 35.5t34.5 14.5q19 0 33 -14.5t14 -35.5q0 -20 -14 -34.5t-33 -14.5zM1123 677h83v-677h-86v591
l-169 -597h-14l-166 565v-366q-1 -111 -40.5 -158.5t-113.5 -47.5q-94 0 -137 50.5t-43 172.5v384l-170 -600h-13l-168 569v-563h-20v621l-17 56h94l149 -522l148 522h82v-489q0 -93 25.5 -135t83.5 -42q24 0 42.5 6t37.5 23.5t29.5 55.5t10.5 95v425l-18 61h94l149 -521z
" />
    <glyph glyph-name="M_Udieresis_N" horiz-adv-x="1147" 
d="M543 745q-19 0 -33.5 15t-14.5 34q0 21 14.5 35.5t33.5 14.5q21 0 34.5 -14.5t13.5 -35.5q0 -20 -13.5 -34.5t-34.5 -14.5zM689 745q-19 0 -34 14.5t-15 34.5q0 21 14.5 35.5t34.5 14.5q19 0 33 -14.5t14 -35.5q0 -20 -14 -34.5t-33 -14.5zM1062 677h20v-677h-90
l-221 570v-377q-1 -111 -40.5 -158.5t-113.5 -47.5q-94 0 -137 50.5t-43 172.5v383l-170 -599h-13l-168 566v-560h-20v622l-17 55h94l149 -522l148 522h82v-489q0 -93 25.5 -135t83.5 -42q24 0 42.5 6t37.5 23.5t29.5 55.5t10.5 95v422l-25 64h90l246 -624v624z" />
    <glyph glyph-name="M_Ugrave" horiz-adv-x="835" 
d="M698 740l-5 -14q-104 20 -184 74l47 73q57 -85 142 -133zM751 677h20v-484q0 -206 -153 -206q-95 0 -138 50.5t-43 172.5v384l-170 -600h-13l-167 568v-562h-20v616l-18 61h94l150 -520l147 520h82v-489q0 -93 26 -135t84 -42q53 0 86 36.5t33 143.5v486z" />
    <glyph glyph-name="M_Ugrave_M" horiz-adv-x="1271" 
d="M698 740l-5 -14q-104 20 -184 74l47 73q57 -85 142 -133zM1123 677h83v-677h-86v591l-169 -597h-14l-166 565v-366q-1 -111 -40.5 -158.5t-113.5 -47.5q-94 0 -137 50.5t-43 172.5v384l-170 -600h-13l-168 569v-563h-20v621l-17 56h94l149 -522l148 522h82v-489
q0 -93 25.5 -135t83.5 -42q24 0 42.5 6t37.5 23.5t29.5 55.5t10.5 95v425l-18 61h94l149 -521z" />
    <glyph glyph-name="M_Ugrave_N" horiz-adv-x="1147" 
d="M698 740l-5 -14q-104 20 -184 74l47 73q57 -85 142 -133zM1062 677h20v-677h-90l-221 570v-377q-1 -111 -40.5 -158.5t-113.5 -47.5q-94 0 -137 50.5t-43 172.5v383l-170 -599h-13l-168 566v-560h-20v622l-17 55h94l149 -522l148 522h82v-489q0 -93 25.5 -135t83.5 -42
q24 0 42.5 6t37.5 23.5t29.5 55.5t10.5 95v422l-25 64h90l246 -624v624z" />
    <glyph glyph-name="M_Uhungarumlaut" horiz-adv-x="835" 
d="M682 857l-126 -120l-13 11l74 148zM653 726l-13 13l115 121l44 -59zM751 191v486h20v-484q0 -206 -153 -206q-95 0 -138 50.5t-43 172.5v384l-170 -600h-13l-167 568v-562h-20v616l-18 61h94l150 -520l147 520h82v-489q0 -93 26 -135t84 -42q53 0 86 36.5t33 143.5z" />
    <glyph glyph-name="M_Uhungarumlaut_M" horiz-adv-x="1271" 
d="M682 857l-126 -120l-13 11l74 148zM653 726l-13 13l115 121l44 -59zM1123 677h83v-677h-86v591l-169 -597h-14l-166 565v-366q-1 -111 -40.5 -158.5t-113.5 -47.5q-94 0 -137 50.5t-43 172.5v384l-170 -600h-13l-168 569v-563h-20v621l-17 56h94l149 -522l148 522h82
v-489q0 -93 25.5 -135t83.5 -42q24 0 42.5 6t37.5 23.5t29.5 55.5t10.5 95v425l-18 61h94l149 -521z" />
    <glyph glyph-name="M_Uhungarumlaut_N" horiz-adv-x="1147" 
d="M682 857l-126 -120l-13 11l74 148zM653 726l-13 13l115 121l44 -59zM1062 677h20v-677h-90l-221 570v-377q-1 -111 -40.5 -158.5t-113.5 -47.5q-94 0 -137 50.5t-43 172.5v383l-170 -599h-13l-168 566v-560h-20v622l-17 55h94l149 -522l148 522h82v-489q0 -93 25.5 -135
t83.5 -42q24 0 42.5 6t37.5 23.5t29.5 55.5t10.5 95v422l-25 64h90l246 -624v624z" />
    <glyph glyph-name="M_Umacron" horiz-adv-x="835" 
d="M731 786v-18h-231v18h231zM751 677h20v-484q0 -206 -153 -206q-95 0 -138 50.5t-43 172.5v384l-170 -600h-13l-167 568v-562h-20v616l-18 61h94l150 -520l147 520h82v-489q0 -93 26 -135t84 -42q53 0 86 36.5t33 143.5v486z" />
    <glyph glyph-name="M_Umacron_M" horiz-adv-x="1271" 
d="M731 786v-18h-231v18h231zM1123 677h83v-677h-86v591l-169 -597h-14l-166 565v-366q-1 -111 -40.5 -158.5t-113.5 -47.5q-94 0 -137 50.5t-43 172.5v384l-170 -600h-13l-168 569v-563h-20v621l-17 56h94l149 -522l148 522h82v-489q0 -93 25.5 -135t83.5 -42q24 0 42.5 6
t37.5 23.5t29.5 55.5t10.5 95v425l-18 61h94l149 -521z" />
    <glyph glyph-name="M_Umacron_N" horiz-adv-x="1147" 
d="M731 786v-18h-231v18h231zM1062 677h20v-677h-90l-221 570v-377q-1 -111 -40.5 -158.5t-113.5 -47.5q-94 0 -137 50.5t-43 172.5v383l-170 -599h-13l-168 566v-560h-20v622l-17 55h94l149 -522l148 522h82v-489q0 -93 25.5 -135t83.5 -42q24 0 42.5 6t37.5 23.5
t29.5 55.5t10.5 95v422l-25 64h90l246 -624v624z" />
    <glyph glyph-name="M_Uogonek" horiz-adv-x="835" 
d="M751 677h20v-484q0 -169 -102 -199q-70 -47 -70 -112q0 -27 14 -41.5t36 -14.5q26 0 49 16l9 -13q-36 -27 -84 -27q-39 0 -65 20t-26 57q0 65 82 108q-92 1 -134.5 52t-42.5 171v384l-170 -600h-13l-167 568v-562h-20v616l-18 61h94l150 -520l147 520h82v-489
q0 -93 26 -135t84 -42q53 0 86 36.5t33 143.5v486z" />
    <glyph glyph-name="M_Uogonek_M" horiz-adv-x="1271" 
d="M1123 677h83v-677h-86v591l-169 -597h-14l-166 565v-366q-1 -170 -102 -199q-70 -47 -70 -112q0 -27 14 -41.5t36 -14.5q26 0 49 16l9 -13q-36 -27 -84 -27q-39 0 -65 20t-26 57q0 65 82 108q-92 1 -134.5 51.5t-42.5 171.5v384l-170 -600h-13l-168 569v-563h-20v621
l-17 56h94l149 -522l148 522h82v-489q0 -93 25.5 -135t83.5 -42q24 0 42.5 6t37.5 23.5t29.5 55.5t10.5 95v425l-18 61h94l149 -521z" />
    <glyph glyph-name="M_Uogonek_N" horiz-adv-x="1147" 
d="M1062 677h20v-677h-90l-221 570v-377q-1 -170 -102 -199q-70 -47 -70 -112q0 -27 14 -41.5t36 -14.5q26 0 49 16l9 -13q-36 -27 -84 -27q-39 0 -65 20t-26 57q0 65 82 108q-92 1 -134.5 51.5t-42.5 171.5v383l-170 -599h-13l-168 566v-560h-20v622l-17 55h94l149 -522
l148 522h82v-489q0 -93 25.5 -135t83.5 -42q24 0 42.5 6t37.5 23.5t29.5 55.5t10.5 95v422l-25 64h90l246 -624v624z" />
    <glyph glyph-name="M_Uring" horiz-adv-x="835" 
d="M616 721q-34 0 -55 20.5t-21 55.5q0 34 21 55.5t55 21.5t54.5 -21t20.5 -56q0 -33 -21 -54.5t-54 -21.5zM616 857q-24 0 -38.5 -16.5t-14.5 -43.5t14.5 -43.5t38.5 -16.5q23 0 37.5 16.5t14.5 43.5t-14.5 43.5t-37.5 16.5zM751 677h20v-484q0 -206 -153 -206
q-95 0 -138 50.5t-43 172.5v384l-170 -600h-13l-167 568v-562h-20v616l-18 61h94l150 -520l147 520h82v-489q0 -93 26 -135t84 -42q53 0 86 36.5t33 143.5v486z" />
    <glyph glyph-name="M_Uring_M" horiz-adv-x="1271" 
d="M616 721q-34 0 -55 20.5t-21 55.5q0 34 21 55.5t55 21.5t54.5 -21t20.5 -56q0 -33 -21 -54.5t-54 -21.5zM616 857q-24 0 -38.5 -16.5t-14.5 -43.5t14.5 -43.5t38.5 -16.5q23 0 37.5 16.5t14.5 43.5t-14.5 43.5t-37.5 16.5zM1123 677h83v-677h-86v591l-169 -597h-14
l-166 565v-366q-1 -111 -40.5 -158.5t-113.5 -47.5q-94 0 -137 50.5t-43 172.5v384l-170 -600h-13l-168 569v-563h-20v621l-17 56h94l149 -522l148 522h82v-489q0 -93 25.5 -135t83.5 -42q24 0 42.5 6t37.5 23.5t29.5 55.5t10.5 95v425l-18 61h94l149 -521z" />
    <glyph glyph-name="M_Uring_N" horiz-adv-x="1147" 
d="M616 721q-34 0 -55 20.5t-21 55.5q0 34 21 55.5t55 21.5t54.5 -21t20.5 -56q0 -33 -21 -54.5t-54 -21.5zM616 857q-24 0 -38.5 -16.5t-14.5 -43.5t14.5 -43.5t38.5 -16.5q23 0 37.5 16.5t14.5 43.5t-14.5 43.5t-37.5 16.5zM1062 677h20v-677h-90l-221 570v-377
q-1 -111 -40.5 -158.5t-113.5 -47.5q-94 0 -137 50.5t-43 172.5v383l-170 -599h-13l-168 566v-560h-20v622l-17 55h94l149 -522l148 522h82v-489q0 -93 25.5 -135t83.5 -42q24 0 42.5 6t37.5 23.5t29.5 55.5t10.5 95v422l-25 64h90l246 -624v624z" />
    <glyph glyph-name="M_Utilde" horiz-adv-x="835" 
d="M551 797q-29 0 -34 -50h-16q0 102 60 102q30 0 73.5 -25t53.5 -25q31 0 35 50h16q0 -102 -61 -102q-26 0 -71 25t-56 25zM751 677h20v-484q0 -206 -153 -206q-95 0 -138 50.5t-43 172.5v384l-170 -600h-13l-167 568v-562h-20v616l-18 61h94l150 -520l147 520h82v-489
q0 -93 26 -135t84 -42q53 0 86 36.5t33 143.5v486z" />
    <glyph glyph-name="M_Utilde_M" horiz-adv-x="1271" 
d="M551 797q-29 0 -34 -50h-16q0 102 60 102q30 0 73.5 -25t53.5 -25q31 0 35 50h16q0 -102 -61 -102q-26 0 -71 25t-56 25zM1123 677h83v-677h-86v591l-169 -597h-14l-166 565v-366q-1 -111 -40.5 -158.5t-113.5 -47.5q-94 0 -137 50.5t-43 172.5v384l-170 -600h-13
l-168 569v-563h-20v621l-17 56h94l149 -522l148 522h82v-489q0 -93 25.5 -135t83.5 -42q24 0 42.5 6t37.5 23.5t29.5 55.5t10.5 95v425l-18 61h94l149 -521z" />
    <glyph glyph-name="M_Utilde_N" horiz-adv-x="1147" 
d="M551 797q-29 0 -34 -50h-16q0 102 60 102q30 0 73.5 -25t53.5 -25q31 0 35 50h16q0 -102 -61 -102q-26 0 -71 25t-56 25zM1062 677h20v-677h-90l-221 570v-377q-1 -111 -40.5 -158.5t-113.5 -47.5q-94 0 -137 50.5t-43 172.5v383l-170 -599h-13l-168 566v-560h-20v622
l-17 55h94l149 -522l148 522h82v-489q0 -93 25.5 -135t83.5 -42q24 0 42.5 6t37.5 23.5t29.5 55.5t10.5 95v422l-25 64h90l246 -624v624z" />
    <glyph glyph-name="N_M" horiz-adv-x="899" 
d="M751 677h82v-677h-85v594l-170 -600h-13l-167 565v-559h-89l-222 572v-572h-20v613l-25 64h91l245 -624v564l-18 60h94l150 -520z" />
    <glyph glyph-name="N_N" horiz-adv-x="774" 
d="M689 677h20v-677h-90l-221 572v-572h-89l-222 571v-571h-20v612l-25 65h91l245 -624v559l-25 65h90l246 -624v624z" />
    <glyph glyph-name="O_C" horiz-adv-x="1264" 
d="M1247 77l8 -10q-104 -80 -236 -80q-102 0 -184.5 42.5t-125.5 127.5q-45 -80 -125.5 -125t-184.5 -45q-161 0 -261 97.5t-100 253.5q0 157 100 255t260 98q107 0 188 -46t124 -127q46 84 133 128.5t192 44.5q113 0 193 -46l-6 -11q-76 38 -179 38q-135 0 -209.5 -86.5
t-74.5 -246.5t74 -246t193 -86q127 0 221 70zM399 3q119 0 191 92t72 243q0 154 -72 245.5t-192 91.5q-119 0 -191 -91.5t-72 -242.5q0 -153 72 -245.5t192 -92.5z" />
    <glyph glyph-name="O_Cacute" horiz-adv-x="1264" 
d="M1138 784q-85 -43 -180 -56l-6 16q93 50 143 114zM1247 77l9 -10q-106 -80 -237 -80q-99 0 -182 41t-129 121q-46 -77 -126.5 -119.5t-182.5 -42.5q-161 0 -261 97.5t-100 253.5q0 157 100 255t260 98q104 0 185 -43.5t127 -121.5q48 80 135 122.5t191 42.5
q111 0 193 -46l-7 -11q-76 38 -179 38q-135 0 -209 -86.5t-74 -246.5t73.5 -246t192.5 -86q127 0 221 70zM399 3q119 0 191 92t72 243q0 154 -72 245.5t-192 91.5q-119 0 -191 -91.5t-72 -242.5q0 -153 72 -245.5t192 -92.5z" />
    <glyph glyph-name="O_Ccaron" horiz-adv-x="1264" 
d="M1052 725h-65l-98 122l14 14l116 -91l117 90l14 -13zM1247 77l9 -10q-106 -80 -237 -80q-99 0 -182 41t-129 121q-46 -77 -126.5 -119.5t-182.5 -42.5q-161 0 -261 97.5t-100 253.5q0 157 100 255t260 98q104 0 185 -43.5t127 -121.5q48 80 135 122.5t191 42.5
q111 0 193 -46l-7 -11q-76 38 -179 38q-135 0 -209 -86.5t-74 -246.5t73.5 -246t192.5 -86q127 0 221 70zM399 3q119 0 191 92t72 243q0 154 -72 245.5t-192 91.5q-119 0 -191 -91.5t-72 -242.5q0 -153 72 -245.5t192 -92.5z" />
    <glyph glyph-name="O_Ccedilla" horiz-adv-x="1264" 
d="M1034 -65q27 0 47.5 -18.5t20.5 -51.5q0 -38 -25 -58.5t-61 -20.5q-40 0 -67 23l12 15q20 -17 41 -17q19 0 31.5 15t12.5 42q0 48 -34 48q-8 0 -17 -3l-12 10l27 68q-98 2 -177.5 42.5t-124.5 119.5q-46 -77 -126.5 -119.5t-182.5 -42.5q-161 0 -261 97.5t-100 253.5
q0 157 100 255t260 98q104 0 185 -43.5t127 -121.5q48 80 135 122.5t191 42.5q111 0 193 -46l-7 -11q-76 38 -179 38q-135 0 -209 -86.5t-74 -246.5t73.5 -246t192.5 -86q127 0 221 70l9 -10q-101 -76 -226 -80l-25 -58q13 6 29 6zM399 3q119 0 191 92t72 243
q0 154 -72 245.5t-192 91.5q-119 0 -191 -91.5t-72 -242.5q0 -153 72 -245.5t192 -92.5z" />
    <glyph glyph-name="O_Ccircumflex" horiz-adv-x="1264" 
d="M1021 807l-119 -84l-12 12l96 118h71l97 -118l-13 -13zM1247 77l9 -10q-106 -80 -237 -80q-99 0 -182 41t-129 121q-46 -77 -126.5 -119.5t-182.5 -42.5q-161 0 -261 97.5t-100 253.5q0 157 100 255t260 98q104 0 185 -43.5t127 -121.5q48 80 135 122.5t191 42.5
q111 0 193 -46l-7 -11q-76 38 -179 38q-135 0 -209 -86.5t-74 -246.5t73.5 -246t192.5 -86q127 0 221 70zM399 3q119 0 191 92t72 243q0 154 -72 245.5t-192 91.5q-119 0 -191 -91.5t-72 -242.5q0 -153 72 -245.5t192 -92.5z" />
    <glyph glyph-name="O_Cdotaccent" horiz-adv-x="1264" 
d="M1019 741q-21 0 -36.5 15t-15.5 36q0 22 15.5 37.5t36.5 15.5t35.5 -15.5t14.5 -37.5q0 -21 -14.5 -36t-35.5 -15zM1247 77l9 -10q-106 -80 -237 -80q-99 0 -182 41t-129 121q-46 -77 -126.5 -119.5t-182.5 -42.5q-161 0 -261 97.5t-100 253.5q0 157 100 255t260 98
q104 0 185 -43.5t127 -121.5q48 80 135 122.5t191 42.5q111 0 193 -46l-7 -11q-76 38 -179 38q-135 0 -209 -86.5t-74 -246.5t73.5 -246t192.5 -86q127 0 221 70zM399 3q119 0 191 92t72 243q0 154 -72 245.5t-192 91.5q-119 0 -191 -91.5t-72 -242.5q0 -153 72 -245.5
t192 -92.5z" />
    <glyph glyph-name="O_G" horiz-adv-x="1307" 
d="M1071 334h195v-296q-115 -51 -238 -51q-110 0 -194 42.5t-127 124.5q-45 -79 -125 -123t-183 -44q-161 0 -261 97.5t-100 253.5q0 157 100 255t260 98q107 0 188.5 -46.5t124.5 -128.5q47 86 135.5 130.5t196.5 44.5q118 0 200 -46l-7 -11q-76 38 -182 38
q-136 0 -215.5 -87.5t-79.5 -249.5q0 -156 75 -243t202 -87q81 0 144 21v290h-109v18zM399 3q119 0 191 92t72 243q0 154 -72 245.5t-192 91.5q-119 0 -191 -91.5t-72 -242.5q0 -153 72 -245.5t192 -92.5z" />
    <glyph glyph-name="O_Gbreve" horiz-adv-x="1307" 
d="M1021 731q-65 0 -97 41t-32 100h18q5 -41 34.5 -63t76.5 -22q46 0 76 23t34 62h18q0 -59 -32 -100t-96 -41zM1071 334h195v-296q-115 -51 -238 -51q-110 0 -194 42.5t-127 124.5q-45 -79 -125 -123t-183 -44q-161 0 -261 97.5t-100 253.5q0 157 100 255t260 98
q107 0 188.5 -46.5t124.5 -128.5q47 86 135.5 130.5t196.5 44.5q118 0 200 -46l-7 -11q-76 38 -182 38q-136 0 -215.5 -87.5t-79.5 -249.5q0 -156 75 -243t202 -87q81 0 144 21v290h-109v18zM399 3q119 0 191 92t72 243q0 154 -72 245.5t-192 91.5q-119 0 -191 -91.5
t-72 -242.5q0 -153 72 -245.5t192 -92.5z" />
    <glyph glyph-name="O_Gcircumflex" horiz-adv-x="1307" 
d="M1026 807l-119 -84l-12 12l96 118h71l97 -118l-13 -13zM1071 334h195v-296q-115 -51 -238 -51q-110 0 -194 42.5t-127 124.5q-45 -79 -125 -123t-183 -44q-161 0 -261 97.5t-100 253.5q0 157 100 255t260 98q107 0 188.5 -46.5t124.5 -128.5q47 86 135.5 130.5
t196.5 44.5q118 0 200 -46l-7 -11q-76 38 -182 38q-136 0 -215.5 -87.5t-79.5 -249.5q0 -156 75 -243t202 -87q81 0 144 21v290h-109v18zM399 3q119 0 191 92t72 243q0 154 -72 245.5t-192 91.5q-119 0 -191 -91.5t-72 -242.5q0 -153 72 -245.5t192 -92.5z" />
    <glyph glyph-name="O_Gcommaaccent" horiz-adv-x="1307" 
d="M1071 334h195v-296q-115 -51 -238 -51q-110 0 -194 42.5t-127 124.5q-45 -79 -125 -123t-183 -44q-161 0 -261 97.5t-100 253.5q0 157 100 255t260 98q107 0 188.5 -46.5t124.5 -128.5q47 86 135.5 130.5t196.5 44.5q118 0 200 -46l-7 -11q-76 38 -182 38
q-136 0 -215.5 -87.5t-79.5 -249.5q0 -156 75 -243t202 -87q81 0 144 21v290h-109v18zM399 3q119 0 191 92t72 243q0 154 -72 245.5t-192 91.5q-119 0 -191 -91.5t-72 -242.5q0 -153 72 -245.5t192 -92.5zM1034 -53q41 0 41 -48q0 -27 -18.5 -59.5t-46.5 -56.5l-12 12
q27 32 27 65q0 37 -36 43q6 44 45 44z" />
    <glyph glyph-name="O_Gdotaccent" horiz-adv-x="1307" 
d="M1024 741q-21 0 -36.5 15t-15.5 36q0 22 15.5 37.5t36.5 15.5t35.5 -15.5t14.5 -37.5q0 -21 -14.5 -36t-35.5 -15zM1071 334h195v-296q-115 -51 -238 -51q-110 0 -194 42.5t-127 124.5q-45 -79 -125 -123t-183 -44q-161 0 -261 97.5t-100 253.5q0 157 100 255t260 98
q107 0 188.5 -46.5t124.5 -128.5q47 86 135.5 130.5t196.5 44.5q118 0 200 -46l-7 -11q-76 38 -182 38q-136 0 -215.5 -87.5t-79.5 -249.5q0 -156 75 -243t202 -87q81 0 144 21v290h-109v18zM399 3q119 0 191 92t72 243q0 154 -72 245.5t-192 91.5q-119 0 -191 -91.5
t-72 -242.5q0 -153 72 -245.5t192 -92.5z" />
    <glyph glyph-name="O_O" horiz-adv-x="1420" 
d="M1021 691q160 0 261 -98.5t101 -252.5q0 -156 -101 -254.5t-259 -98.5q-108 0 -189.5 45.5t-123.5 126.5q-44 -81 -125 -126.5t-186 -45.5q-161 0 -261 97.5t-100 253.5q0 157 100 255t260 98q106 0 187.5 -45.5t124.5 -126.5q43 81 124 126.5t187 45.5zM399 3
q119 0 191 92t72 243q0 154 -72 245.5t-192 91.5q-119 0 -191 -91.5t-72 -242.5q0 -153 72 -245.5t192 -92.5zM1023 3q118 0 190 91.5t72 243.5q0 154 -72 245.5t-192 91.5q-118 0 -190 -91.5t-72 -242.5q0 -153 72 -245.5t192 -92.5z" />
    <glyph glyph-name="O_Oacute" horiz-adv-x="1420" 
d="M1136 784q-85 -43 -180 -56l-6 16q93 50 143 114zM1021 691q160 0 261 -98.5t101 -252.5q0 -156 -101 -254.5t-259 -98.5q-108 0 -189.5 45.5t-123.5 126.5q-44 -81 -125 -126.5t-186 -45.5q-161 0 -261 97.5t-100 253.5q0 157 100 255t260 98q106 0 187.5 -45.5
t124.5 -126.5q43 81 124 126.5t187 45.5zM399 3q119 0 191 92t72 243q0 154 -72 245.5t-192 91.5q-119 0 -191 -91.5t-72 -242.5q0 -153 72 -245.5t192 -92.5zM1023 3q118 0 190 91.5t72 243.5q0 154 -72 245.5t-192 91.5q-118 0 -190 -91.5t-72 -242.5q0 -153 72 -245.5
t192 -92.5z" />
    <glyph glyph-name="O_Obreve" horiz-adv-x="1420" 
d="M1014 731q-65 0 -97 41t-32 100h18q5 -41 34.5 -63t76.5 -22q46 0 76 23t34 62h18q0 -59 -32 -100t-96 -41zM1021 691q160 0 261 -98.5t101 -252.5q0 -156 -101 -254.5t-259 -98.5q-108 0 -189.5 45.5t-123.5 126.5q-44 -81 -125 -126.5t-186 -45.5q-161 0 -261 97.5
t-100 253.5q0 157 100 255t260 98q106 0 187.5 -45.5t124.5 -126.5q43 81 124 126.5t187 45.5zM399 3q119 0 191 92t72 243q0 154 -72 245.5t-192 91.5q-119 0 -191 -91.5t-72 -242.5q0 -153 72 -245.5t192 -92.5zM1023 3q118 0 190 91.5t72 243.5q0 154 -72 245.5
t-192 91.5q-118 0 -190 -91.5t-72 -242.5q0 -153 72 -245.5t192 -92.5z" />
    <glyph glyph-name="uni004F01D1" horiz-adv-x="1420" 
d="M1050 725h-65l-98 122l14 14l116 -91l117 90l14 -13zM1021 691q160 0 261 -98.5t101 -252.5q0 -156 -101 -254.5t-259 -98.5q-108 0 -189.5 45.5t-123.5 126.5q-44 -81 -125 -126.5t-186 -45.5q-161 0 -261 97.5t-100 253.5q0 157 100 255t260 98q106 0 187.5 -45.5
t124.5 -126.5q43 81 124 126.5t187 45.5zM399 3q119 0 191 92t72 243q0 154 -72 245.5t-192 91.5q-119 0 -191 -91.5t-72 -242.5q0 -153 72 -245.5t192 -92.5zM1023 3q118 0 190 91.5t72 243.5q0 154 -72 245.5t-192 91.5q-118 0 -190 -91.5t-72 -242.5q0 -153 72 -245.5
t192 -92.5z" />
    <glyph glyph-name="O_Ocircumflex" horiz-adv-x="1420" 
d="M1019 807l-119 -84l-12 12l96 118h71l97 -118l-13 -13zM1021 691q160 0 261 -98.5t101 -252.5q0 -156 -101 -254.5t-259 -98.5q-108 0 -189.5 45.5t-123.5 126.5q-44 -81 -125 -126.5t-186 -45.5q-161 0 -261 97.5t-100 253.5q0 157 100 255t260 98q106 0 187.5 -45.5
t124.5 -126.5q43 81 124 126.5t187 45.5zM399 3q119 0 191 92t72 243q0 154 -72 245.5t-192 91.5q-119 0 -191 -91.5t-72 -242.5q0 -153 72 -245.5t192 -92.5zM1023 3q118 0 190 91.5t72 243.5q0 154 -72 245.5t-192 91.5q-118 0 -190 -91.5t-72 -242.5q0 -153 72 -245.5
t192 -92.5z" />
    <glyph glyph-name="O_Odieresis" horiz-adv-x="1420" 
d="M944 745q-19 0 -33.5 15t-14.5 34q0 21 14.5 35.5t33.5 14.5q21 0 34.5 -14.5t13.5 -35.5q0 -20 -13.5 -34.5t-34.5 -14.5zM1090 745q-20 0 -34.5 14.5t-14.5 34.5q0 21 14.5 35.5t34.5 14.5q19 0 33 -14.5t14 -35.5q0 -20 -14 -34.5t-33 -14.5zM1021 691
q160 0 261 -98.5t101 -252.5q0 -156 -101 -254.5t-259 -98.5q-108 0 -189.5 45.5t-123.5 126.5q-44 -81 -125 -126.5t-186 -45.5q-161 0 -261 97.5t-100 253.5q0 157 100 255t260 98q106 0 187.5 -45.5t124.5 -126.5q43 81 124 126.5t187 45.5zM399 3q119 0 191 92t72 243
q0 154 -72 245.5t-192 91.5q-119 0 -191 -91.5t-72 -242.5q0 -153 72 -245.5t192 -92.5zM1023 3q118 0 190 91.5t72 243.5q0 154 -72 245.5t-192 91.5q-118 0 -190 -91.5t-72 -242.5q0 -153 72 -245.5t192 -92.5z" />
    <glyph glyph-name="O_Ograve" horiz-adv-x="1420" 
d="M1099 740l-5 -14q-104 20 -184 74l47 73q57 -85 142 -133zM1021 691q160 0 261 -98.5t101 -252.5q0 -156 -101 -254.5t-259 -98.5q-108 0 -189.5 45.5t-123.5 126.5q-44 -81 -125 -126.5t-186 -45.5q-161 0 -261 97.5t-100 253.5q0 157 100 255t260 98q106 0 187.5 -45.5
t124.5 -126.5q43 81 124 126.5t187 45.5zM399 3q119 0 191 92t72 243q0 154 -72 245.5t-192 91.5q-119 0 -191 -91.5t-72 -242.5q0 -153 72 -245.5t192 -92.5zM1023 3q118 0 190 91.5t72 243.5q0 154 -72 245.5t-192 91.5q-118 0 -190 -91.5t-72 -242.5q0 -153 72 -245.5
t192 -92.5z" />
    <glyph glyph-name="O_Ohungarumlaut" horiz-adv-x="1420" 
d="M1083 857l-126 -120l-13 11l74 148zM1054 726l-13 13l115 121l44 -59zM1021 691q160 0 261 -98.5t101 -252.5q0 -156 -101 -254.5t-259 -98.5q-108 0 -189.5 45.5t-123.5 126.5q-44 -81 -125 -126.5t-186 -45.5q-161 0 -261 97.5t-100 253.5q0 157 100 255t260 98
q106 0 187.5 -45.5t124.5 -126.5q43 81 124 126.5t187 45.5zM399 3q119 0 191 92t72 243q0 154 -72 245.5t-192 91.5q-119 0 -191 -91.5t-72 -242.5q0 -153 72 -245.5t192 -92.5zM1023 3q118 0 190 91.5t72 243.5q0 154 -72 245.5t-192 91.5q-118 0 -190 -91.5t-72 -242.5
q0 -153 72 -245.5t192 -92.5z" />
    <glyph glyph-name="O_Omacron" horiz-adv-x="1420" 
d="M1132 786v-18h-231v18h231zM1021 691q160 0 261 -98.5t101 -252.5q0 -156 -101 -254.5t-259 -98.5q-108 0 -189.5 45.5t-123.5 126.5q-44 -81 -125 -126.5t-186 -45.5q-161 0 -261 97.5t-100 253.5q0 157 100 255t260 98q106 0 187.5 -45.5t124.5 -126.5q43 81 124 126.5
t187 45.5zM399 3q119 0 191 92t72 243q0 154 -72 245.5t-192 91.5q-119 0 -191 -91.5t-72 -242.5q0 -153 72 -245.5t192 -92.5zM1023 3q118 0 190 91.5t72 243.5q0 154 -72 245.5t-192 91.5q-118 0 -190 -91.5t-72 -242.5q0 -153 72 -245.5t192 -92.5z" />
    <glyph glyph-name="O_Oslash" horiz-adv-x="1420" 
d="M1276 599q107 -101 107 -259q0 -156 -101 -254.5t-259 -98.5q-142 0 -236 78l-72 -79l-14 13l71 78q-39 37 -62 82q-44 -81 -125 -126.5t-186 -45.5q-161 0 -261 97.5t-100 253.5q0 157 100 255t260 98q106 0 187.5 -45.5t124.5 -126.5q43 81 124 126.5t187 45.5
q141 0 239 -79l73 80l15 -14zM399 3q119 0 191 92t72 243q0 154 -72 245.5t-192 91.5q-119 0 -191 -91.5t-72 -242.5q0 -153 72 -245.5t192 -92.5zM759 341q0 -132 54 -220l409 450q-72 104 -201 104q-118 0 -190 -91.5t-72 -242.5zM1023 3q118 0 190 91.5t72 243.5
q0 128 -51 215l-410 -448q72 -102 199 -102z" />
    <glyph glyph-name="O_Otilde" horiz-adv-x="1420" 
d="M936 797q-21 0 -32 -11t-15 -39h-17q0 48 19 75t55 27t89 -25t67 -25q41 0 47 50h17q0 -48 -19.5 -75t-54.5 -27q-33 0 -87 25t-69 25zM1021 691q160 0 261 -98.5t101 -252.5q0 -156 -101 -254.5t-259 -98.5q-108 0 -189.5 45.5t-123.5 126.5q-44 -81 -125 -126.5
t-186 -45.5q-161 0 -261 97.5t-100 253.5q0 157 100 255t260 98q106 0 187.5 -45.5t124.5 -126.5q43 81 124 126.5t187 45.5zM399 3q119 0 191 92t72 243q0 154 -72 245.5t-192 91.5q-119 0 -191 -91.5t-72 -242.5q0 -153 72 -245.5t192 -92.5zM1023 3q118 0 190 91.5
t72 243.5q0 154 -72 245.5t-192 91.5q-118 0 -190 -91.5t-72 -242.5q0 -153 72 -245.5t192 -92.5z" />
    <glyph glyph-name="Oacute_C" horiz-adv-x="1264" 
d="M514 784q-85 -43 -180 -56l-6 16q93 50 143 114zM1247 77l8 -10q-104 -80 -236 -80q-102 0 -184.5 42.5t-125.5 127.5q-45 -80 -125.5 -125t-184.5 -45q-161 0 -261 97.5t-100 253.5q0 157 100 255t260 98q107 0 188 -46t124 -127q46 84 133 128.5t192 44.5
q113 0 193 -46l-6 -11q-76 38 -179 38q-135 0 -209.5 -86.5t-74.5 -246.5t74 -246t193 -86q127 0 221 70zM399 3q119 0 191 92t72 243q0 154 -72 245.5t-192 91.5q-119 0 -191 -91.5t-72 -242.5q0 -153 72 -245.5t192 -92.5z" />
    <glyph glyph-name="Oacute_G" horiz-adv-x="1307" 
d="M514 784q-85 -43 -180 -56l-6 16q93 50 143 114zM1071 334h195v-296q-115 -51 -238 -51q-110 0 -194 42.5t-127 124.5q-45 -79 -125 -123t-183 -44q-161 0 -261 97.5t-100 253.5q0 157 100 255t260 98q107 0 188.5 -46.5t124.5 -128.5q47 86 135.5 130.5t196.5 44.5
q118 0 200 -46l-7 -11q-76 38 -182 38q-136 0 -215.5 -87.5t-79.5 -249.5q0 -156 75 -243t202 -87q81 0 144 21v290h-109v18zM399 3q119 0 191 92t72 243q0 154 -72 245.5t-192 91.5q-119 0 -191 -91.5t-72 -242.5q0 -153 72 -245.5t192 -92.5z" />
    <glyph glyph-name="Oacute_O" horiz-adv-x="1420" 
d="M514 784q-85 -43 -180 -56l-6 16q93 50 143 114zM1021 691q160 0 261 -98.5t101 -252.5q0 -156 -101 -254.5t-259 -98.5q-108 0 -189.5 45.5t-123.5 126.5q-44 -81 -125 -126.5t-186 -45.5q-161 0 -261 97.5t-100 253.5q0 157 100 255t260 98q106 0 187.5 -45.5
t124.5 -126.5q43 81 124 126.5t187 45.5zM399 3q119 0 191 92t72 243q0 154 -72 245.5t-192 91.5q-119 0 -191 -91.5t-72 -242.5q0 -153 72 -245.5t192 -92.5zM1023 3q118 0 190 91.5t72 243.5q0 154 -72 245.5t-192 91.5q-118 0 -190 -91.5t-72 -242.5q0 -153 72 -245.5
t192 -92.5z" />
    <glyph glyph-name="Obreve_C" horiz-adv-x="1264" 
d="M392 731q-65 0 -97 41t-32 100h18q5 -41 34.5 -63t76.5 -22q46 0 76 23t34 62h18q0 -59 -32 -100t-96 -41zM1247 77l8 -10q-104 -80 -236 -80q-102 0 -184.5 42.5t-125.5 127.5q-45 -80 -125.5 -125t-184.5 -45q-161 0 -261 97.5t-100 253.5q0 157 100 255t260 98
q107 0 188 -46t124 -127q46 84 133 128.5t192 44.5q113 0 193 -46l-6 -11q-76 38 -179 38q-135 0 -209.5 -86.5t-74.5 -246.5t74 -246t193 -86q127 0 221 70zM399 3q119 0 191 92t72 243q0 154 -72 245.5t-192 91.5q-119 0 -191 -91.5t-72 -242.5q0 -153 72 -245.5
t192 -92.5z" />
    <glyph glyph-name="Obreve_G" horiz-adv-x="1307" 
d="M392 731q-65 0 -97 41t-32 100h18q5 -41 34.5 -63t76.5 -22q46 0 76 23t34 62h18q0 -59 -32 -100t-96 -41zM1071 334h195v-296q-115 -51 -238 -51q-110 0 -194 42.5t-127 124.5q-45 -79 -125 -123t-183 -44q-161 0 -261 97.5t-100 253.5q0 157 100 255t260 98
q107 0 188.5 -46.5t124.5 -128.5q47 86 135.5 130.5t196.5 44.5q118 0 200 -46l-7 -11q-76 38 -182 38q-136 0 -215.5 -87.5t-79.5 -249.5q0 -156 75 -243t202 -87q81 0 144 21v290h-109v18zM399 3q119 0 191 92t72 243q0 154 -72 245.5t-192 91.5q-119 0 -191 -91.5
t-72 -242.5q0 -153 72 -245.5t192 -92.5z" />
    <glyph glyph-name="Obreve_O" horiz-adv-x="1420" 
d="M392 731q-65 0 -97 41t-32 100h18q5 -41 34.5 -63t76.5 -22q46 0 76 23t34 62h18q0 -59 -32 -100t-96 -41zM1021 691q160 0 261 -98.5t101 -252.5q0 -156 -101 -254.5t-259 -98.5q-108 0 -189.5 45.5t-123.5 126.5q-44 -81 -125 -126.5t-186 -45.5q-161 0 -261 97.5
t-100 253.5q0 157 100 255t260 98q106 0 187.5 -45.5t124.5 -126.5q43 81 124 126.5t187 45.5zM399 3q119 0 191 92t72 243q0 154 -72 245.5t-192 91.5q-119 0 -191 -91.5t-72 -242.5q0 -153 72 -245.5t192 -92.5zM1023 3q118 0 190 91.5t72 243.5q0 154 -72 245.5
t-192 91.5q-118 0 -190 -91.5t-72 -242.5q0 -153 72 -245.5t192 -92.5z" />
    <glyph glyph-name="uni01D10043" horiz-adv-x="1264" 
d="M428 725h-65l-98 122l14 14l116 -91l117 90l14 -13zM1247 77l8 -10q-104 -80 -236 -80q-102 0 -184.5 42.5t-125.5 127.5q-45 -80 -125.5 -125t-184.5 -45q-161 0 -261 97.5t-100 253.5q0 157 100 255t260 98q107 0 188 -46t124 -127q46 84 133 128.5t192 44.5
q113 0 193 -46l-6 -11q-76 38 -179 38q-135 0 -209.5 -86.5t-74.5 -246.5t74 -246t193 -86q127 0 221 70zM399 3q119 0 191 92t72 243q0 154 -72 245.5t-192 91.5q-119 0 -191 -91.5t-72 -242.5q0 -153 72 -245.5t192 -92.5z" />
    <glyph glyph-name="uni01D10047" horiz-adv-x="1307" 
d="M428 725h-65l-98 122l14 14l116 -91l117 90l14 -13zM1071 334h195v-296q-115 -51 -238 -51q-110 0 -194 42.5t-127 124.5q-45 -79 -125 -123t-183 -44q-161 0 -261 97.5t-100 253.5q0 157 100 255t260 98q107 0 188.5 -46.5t124.5 -128.5q47 86 135.5 130.5t196.5 44.5
q118 0 200 -46l-7 -11q-76 38 -182 38q-136 0 -215.5 -87.5t-79.5 -249.5q0 -156 75 -243t202 -87q81 0 144 21v290h-109v18zM399 3q119 0 191 92t72 243q0 154 -72 245.5t-192 91.5q-119 0 -191 -91.5t-72 -242.5q0 -153 72 -245.5t192 -92.5z" />
    <glyph glyph-name="uni01D1004F" horiz-adv-x="1420" 
d="M428 725h-65l-98 122l14 14l116 -91l117 90l14 -13zM1021 691q160 0 261 -98.5t101 -252.5q0 -156 -101 -254.5t-259 -98.5q-108 0 -189.5 45.5t-123.5 126.5q-44 -81 -125 -126.5t-186 -45.5q-161 0 -261 97.5t-100 253.5q0 157 100 255t260 98q106 0 187.5 -45.5
t124.5 -126.5q43 81 124 126.5t187 45.5zM399 3q119 0 191 92t72 243q0 154 -72 245.5t-192 91.5q-119 0 -191 -91.5t-72 -242.5q0 -153 72 -245.5t192 -92.5zM1023 3q118 0 190 91.5t72 243.5q0 154 -72 245.5t-192 91.5q-118 0 -190 -91.5t-72 -242.5q0 -153 72 -245.5
t192 -92.5z" />
    <glyph glyph-name="Ocircumflex_C" horiz-adv-x="1264" 
d="M397 807l-119 -84l-12 12l96 118h71l97 -118l-13 -13zM1247 77l8 -10q-104 -80 -236 -80q-102 0 -184.5 42.5t-125.5 127.5q-45 -80 -125.5 -125t-184.5 -45q-161 0 -261 97.5t-100 253.5q0 157 100 255t260 98q107 0 188 -46t124 -127q46 84 133 128.5t192 44.5
q113 0 193 -46l-6 -11q-76 38 -179 38q-135 0 -209.5 -86.5t-74.5 -246.5t74 -246t193 -86q127 0 221 70zM399 3q119 0 191 92t72 243q0 154 -72 245.5t-192 91.5q-119 0 -191 -91.5t-72 -242.5q0 -153 72 -245.5t192 -92.5z" />
    <glyph glyph-name="Ocircumflex_G" horiz-adv-x="1307" 
d="M397 807l-119 -84l-12 12l96 118h71l97 -118l-13 -13zM1071 334h195v-296q-115 -51 -238 -51q-110 0 -194 42.5t-127 124.5q-45 -79 -125 -123t-183 -44q-161 0 -261 97.5t-100 253.5q0 157 100 255t260 98q107 0 188.5 -46.5t124.5 -128.5q47 86 135.5 130.5t196.5 44.5
q118 0 200 -46l-7 -11q-76 38 -182 38q-136 0 -215.5 -87.5t-79.5 -249.5q0 -156 75 -243t202 -87q81 0 144 21v290h-109v18zM399 3q119 0 191 92t72 243q0 154 -72 245.5t-192 91.5q-119 0 -191 -91.5t-72 -242.5q0 -153 72 -245.5t192 -92.5z" />
    <glyph glyph-name="Ocircumflex_O" horiz-adv-x="1420" 
d="M397 807l-119 -84l-12 12l96 118h71l97 -118l-13 -13zM1021 691q160 0 261 -98.5t101 -252.5q0 -156 -101 -254.5t-259 -98.5q-108 0 -189.5 45.5t-123.5 126.5q-44 -81 -125 -126.5t-186 -45.5q-161 0 -261 97.5t-100 253.5q0 157 100 255t260 98q106 0 187.5 -45.5
t124.5 -126.5q43 81 124 126.5t187 45.5zM399 3q119 0 191 92t72 243q0 154 -72 245.5t-192 91.5q-119 0 -191 -91.5t-72 -242.5q0 -153 72 -245.5t192 -92.5zM1023 3q118 0 190 91.5t72 243.5q0 154 -72 245.5t-192 91.5q-118 0 -190 -91.5t-72 -242.5q0 -153 72 -245.5
t192 -92.5z" />
    <glyph glyph-name="Odieresis_C" horiz-adv-x="1264" 
d="M322 745q-19 0 -33.5 15t-14.5 34q0 21 14.5 35.5t33.5 14.5q21 0 34.5 -14.5t13.5 -35.5q0 -20 -13.5 -34.5t-34.5 -14.5zM468 745q-20 0 -34.5 14.5t-14.5 34.5q0 21 14.5 35.5t34.5 14.5q19 0 33 -14.5t14 -35.5q0 -20 -14 -34.5t-33 -14.5zM1247 77l8 -10
q-104 -80 -236 -80q-102 0 -184.5 42.5t-125.5 127.5q-45 -80 -125.5 -125t-184.5 -45q-161 0 -261 97.5t-100 253.5q0 157 100 255t260 98q107 0 188 -46t124 -127q46 84 133 128.5t192 44.5q113 0 193 -46l-6 -11q-76 38 -179 38q-135 0 -209.5 -86.5t-74.5 -246.5
t74 -246t193 -86q127 0 221 70zM399 3q119 0 191 92t72 243q0 154 -72 245.5t-192 91.5q-119 0 -191 -91.5t-72 -242.5q0 -153 72 -245.5t192 -92.5z" />
    <glyph glyph-name="Odieresis_G" horiz-adv-x="1307" 
d="M322 745q-19 0 -33.5 15t-14.5 34q0 21 14.5 35.5t33.5 14.5q21 0 34.5 -14.5t13.5 -35.5q0 -20 -13.5 -34.5t-34.5 -14.5zM468 745q-20 0 -34.5 14.5t-14.5 34.5q0 21 14.5 35.5t34.5 14.5q19 0 33 -14.5t14 -35.5q0 -20 -14 -34.5t-33 -14.5zM1071 334h195v-296
q-115 -51 -238 -51q-110 0 -194 42.5t-127 124.5q-45 -79 -125 -123t-183 -44q-161 0 -261 97.5t-100 253.5q0 157 100 255t260 98q107 0 188.5 -46.5t124.5 -128.5q47 86 135.5 130.5t196.5 44.5q118 0 200 -46l-7 -11q-76 38 -182 38q-136 0 -215.5 -87.5t-79.5 -249.5
q0 -156 75 -243t202 -87q81 0 144 21v290h-109v18zM399 3q119 0 191 92t72 243q0 154 -72 245.5t-192 91.5q-119 0 -191 -91.5t-72 -242.5q0 -153 72 -245.5t192 -92.5z" />
    <glyph glyph-name="Odieresis_O" horiz-adv-x="1420" 
d="M322 745q-19 0 -33.5 15t-14.5 34q0 21 14.5 35.5t33.5 14.5q21 0 34.5 -14.5t13.5 -35.5q0 -20 -13.5 -34.5t-34.5 -14.5zM468 745q-20 0 -34.5 14.5t-14.5 34.5q0 21 14.5 35.5t34.5 14.5q19 0 33 -14.5t14 -35.5q0 -20 -14 -34.5t-33 -14.5zM1021 691q160 0 261 -98.5
t101 -252.5q0 -156 -101 -254.5t-259 -98.5q-108 0 -189.5 45.5t-123.5 126.5q-44 -81 -125 -126.5t-186 -45.5q-161 0 -261 97.5t-100 253.5q0 157 100 255t260 98q106 0 187.5 -45.5t124.5 -126.5q43 81 124 126.5t187 45.5zM399 3q119 0 191 92t72 243q0 154 -72 245.5
t-192 91.5q-119 0 -191 -91.5t-72 -242.5q0 -153 72 -245.5t192 -92.5zM1023 3q118 0 190 91.5t72 243.5q0 154 -72 245.5t-192 91.5q-118 0 -190 -91.5t-72 -242.5q0 -153 72 -245.5t192 -92.5z" />
    <glyph glyph-name="Ograve_C" horiz-adv-x="1264" 
d="M477 740l-5 -14q-104 20 -184 74l47 73q57 -85 142 -133zM1247 77l8 -10q-104 -80 -236 -80q-102 0 -184.5 42.5t-125.5 127.5q-45 -80 -125.5 -125t-184.5 -45q-161 0 -261 97.5t-100 253.5q0 157 100 255t260 98q107 0 188 -46t124 -127q46 84 133 128.5t192 44.5
q113 0 193 -46l-6 -11q-76 38 -179 38q-135 0 -209.5 -86.5t-74.5 -246.5t74 -246t193 -86q127 0 221 70zM399 3q119 0 191 92t72 243q0 154 -72 245.5t-192 91.5q-119 0 -191 -91.5t-72 -242.5q0 -153 72 -245.5t192 -92.5z" />
    <glyph glyph-name="Ograve_G" horiz-adv-x="1307" 
d="M477 740l-5 -14q-104 20 -184 74l47 73q57 -85 142 -133zM1071 334h195v-296q-115 -51 -238 -51q-110 0 -194 42.5t-127 124.5q-45 -79 -125 -123t-183 -44q-161 0 -261 97.5t-100 253.5q0 157 100 255t260 98q107 0 188.5 -46.5t124.5 -128.5q47 86 135.5 130.5
t196.5 44.5q118 0 200 -46l-7 -11q-76 38 -182 38q-136 0 -215.5 -87.5t-79.5 -249.5q0 -156 75 -243t202 -87q81 0 144 21v290h-109v18zM399 3q119 0 191 92t72 243q0 154 -72 245.5t-192 91.5q-119 0 -191 -91.5t-72 -242.5q0 -153 72 -245.5t192 -92.5z" />
    <glyph glyph-name="Ograve_O" horiz-adv-x="1420" 
d="M477 740l-5 -14q-104 20 -184 74l47 73q57 -85 142 -133zM1021 691q160 0 261 -98.5t101 -252.5q0 -156 -101 -254.5t-259 -98.5q-108 0 -189.5 45.5t-123.5 126.5q-44 -81 -125 -126.5t-186 -45.5q-161 0 -261 97.5t-100 253.5q0 157 100 255t260 98q106 0 187.5 -45.5
t124.5 -126.5q43 81 124 126.5t187 45.5zM399 3q119 0 191 92t72 243q0 154 -72 245.5t-192 91.5q-119 0 -191 -91.5t-72 -242.5q0 -153 72 -245.5t192 -92.5zM1023 3q118 0 190 91.5t72 243.5q0 154 -72 245.5t-192 91.5q-118 0 -190 -91.5t-72 -242.5q0 -153 72 -245.5
t192 -92.5z" />
    <glyph glyph-name="Ohungarumlaut_C" horiz-adv-x="1264" 
d="M461 857l-126 -120l-13 11l74 148zM432 726l-13 13l115 121l44 -59zM1247 77l8 -10q-104 -80 -236 -80q-102 0 -184.5 42.5t-125.5 127.5q-45 -80 -125.5 -125t-184.5 -45q-161 0 -261 97.5t-100 253.5q0 157 100 255t260 98q107 0 188 -46t124 -127q46 84 133 128.5
t192 44.5q113 0 193 -46l-6 -11q-76 38 -179 38q-135 0 -209.5 -86.5t-74.5 -246.5t74 -246t193 -86q127 0 221 70zM399 3q119 0 191 92t72 243q0 154 -72 245.5t-192 91.5q-119 0 -191 -91.5t-72 -242.5q0 -153 72 -245.5t192 -92.5z" />
    <glyph glyph-name="Ohungarumlaut_G" horiz-adv-x="1307" 
d="M461 857l-126 -120l-13 11l74 148zM432 726l-13 13l115 121l44 -59zM1071 334h195v-296q-115 -51 -238 -51q-110 0 -194 42.5t-127 124.5q-45 -79 -125 -123t-183 -44q-161 0 -261 97.5t-100 253.5q0 157 100 255t260 98q107 0 188.5 -46.5t124.5 -128.5
q47 86 135.5 130.5t196.5 44.5q118 0 200 -46l-7 -11q-76 38 -182 38q-136 0 -215.5 -87.5t-79.5 -249.5q0 -156 75 -243t202 -87q81 0 144 21v290h-109v18zM399 3q119 0 191 92t72 243q0 154 -72 245.5t-192 91.5q-119 0 -191 -91.5t-72 -242.5q0 -153 72 -245.5t192 -92.5
z" />
    <glyph glyph-name="Ohungarumlaut_O" horiz-adv-x="1420" 
d="M461 857l-126 -120l-13 11l74 148zM432 726l-13 13l115 121l44 -59zM1021 691q160 0 261 -98.5t101 -252.5q0 -156 -101 -254.5t-259 -98.5q-108 0 -189.5 45.5t-123.5 126.5q-44 -81 -125 -126.5t-186 -45.5q-161 0 -261 97.5t-100 253.5q0 157 100 255t260 98
q106 0 187.5 -45.5t124.5 -126.5q43 81 124 126.5t187 45.5zM399 3q119 0 191 92t72 243q0 154 -72 245.5t-192 91.5q-119 0 -191 -91.5t-72 -242.5q0 -153 72 -245.5t192 -92.5zM1023 3q118 0 190 91.5t72 243.5q0 154 -72 245.5t-192 91.5q-118 0 -190 -91.5t-72 -242.5
q0 -153 72 -245.5t192 -92.5z" />
    <glyph glyph-name="Omacron_C" horiz-adv-x="1264" 
d="M510 786v-18h-231v18h231zM1247 77l8 -10q-104 -80 -236 -80q-102 0 -184.5 42.5t-125.5 127.5q-45 -80 -125.5 -125t-184.5 -45q-161 0 -261 97.5t-100 253.5q0 157 100 255t260 98q107 0 188 -46t124 -127q46 84 133 128.5t192 44.5q113 0 193 -46l-6 -11
q-76 38 -179 38q-135 0 -209.5 -86.5t-74.5 -246.5t74 -246t193 -86q127 0 221 70zM399 3q119 0 191 92t72 243q0 154 -72 245.5t-192 91.5q-119 0 -191 -91.5t-72 -242.5q0 -153 72 -245.5t192 -92.5z" />
    <glyph glyph-name="Omacron_G" horiz-adv-x="1307" 
d="M510 786v-18h-231v18h231zM1071 334h195v-296q-115 -51 -238 -51q-110 0 -194 42.5t-127 124.5q-45 -79 -125 -123t-183 -44q-161 0 -261 97.5t-100 253.5q0 157 100 255t260 98q107 0 188.5 -46.5t124.5 -128.5q47 86 135.5 130.5t196.5 44.5q118 0 200 -46l-7 -11
q-76 38 -182 38q-136 0 -215.5 -87.5t-79.5 -249.5q0 -156 75 -243t202 -87q81 0 144 21v290h-109v18zM399 3q119 0 191 92t72 243q0 154 -72 245.5t-192 91.5q-119 0 -191 -91.5t-72 -242.5q0 -153 72 -245.5t192 -92.5z" />
    <glyph glyph-name="Omacron_O" horiz-adv-x="1420" 
d="M510 786v-18h-231v18h231zM1021 691q160 0 261 -98.5t101 -252.5q0 -156 -101 -254.5t-259 -98.5q-108 0 -189.5 45.5t-123.5 126.5q-44 -81 -125 -126.5t-186 -45.5q-161 0 -261 97.5t-100 253.5q0 157 100 255t260 98q106 0 187.5 -45.5t124.5 -126.5q43 81 124 126.5
t187 45.5zM399 3q119 0 191 92t72 243q0 154 -72 245.5t-192 91.5q-119 0 -191 -91.5t-72 -242.5q0 -153 72 -245.5t192 -92.5zM1023 3q118 0 190 91.5t72 243.5q0 154 -72 245.5t-192 91.5q-118 0 -190 -91.5t-72 -242.5q0 -153 72 -245.5t192 -92.5z" />
    <glyph glyph-name="Oslash_C" horiz-adv-x="1264" 
d="M1247 77l8 -10q-104 -80 -236 -80q-102 0 -184.5 42.5t-125.5 127.5q-45 -80 -125.5 -125t-184.5 -45q-140 0 -237 76l-71 -77l-13 13l70 76q-110 99 -110 263q0 157 100 255t260 98q143 0 237 -80l74 81l15 -14l-74 -81q35 -32 60 -79q46 84 133 128.5t192 44.5
q113 0 193 -46l-6 -11q-76 38 -179 38q-135 0 -209.5 -86.5t-74.5 -246.5t74 -246t193 -86q127 0 221 70zM135 341q0 -132 54 -220l410 450q-72 104 -201 104q-119 0 -191 -91.5t-72 -242.5zM399 3q119 0 191 92t72 243q0 130 -52 216l-410 -449q72 -102 199 -102z" />
    <glyph glyph-name="Oslash_G" horiz-adv-x="1307" 
d="M1071 334h195v-296q-115 -51 -238 -51q-110 0 -194 42.5t-127 124.5q-45 -79 -125 -123t-183 -44q-140 0 -237 76l-71 -77l-13 13l70 76q-110 99 -110 263q0 157 100 255t260 98q143 0 237 -80l74 81l15 -14l-74 -81q37 -34 61 -81q47 86 135.5 130.5t196.5 44.5
q118 0 200 -46l-7 -11q-76 38 -182 38q-136 0 -215.5 -87.5t-79.5 -249.5q0 -156 75 -243t202 -87q81 0 144 21v290h-109v18zM135 341q0 -132 54 -220l410 450q-72 104 -201 104q-119 0 -191 -91.5t-72 -242.5zM399 3q119 0 191 92t72 243q0 130 -52 216l-410 -449
q72 -102 199 -102z" />
    <glyph glyph-name="Oslash_O" horiz-adv-x="1420" 
d="M1021 691q160 0 261 -98.5t101 -252.5q0 -156 -101 -254.5t-259 -98.5q-108 0 -189.5 45.5t-123.5 126.5q-44 -81 -125 -126.5t-186 -45.5q-142 0 -238 77l-72 -78l-14 13l71 78q-108 98 -108 261q0 157 100 255t260 98q141 0 236 -79l73 80l15 -14l-73 -80
q39 -37 61 -79q43 81 124 126.5t187 45.5zM135 341q0 -131 53 -218l410 450q-72 102 -200 102q-119 0 -191 -91.5t-72 -242.5zM1023 3q118 0 190 91.5t72 243.5q0 154 -72 245.5t-192 91.5q-118 0 -190 -91.5t-72 -242.5q0 -153 72 -245.5t192 -92.5zM399 3q119 0 191 92
t72 243q0 130 -53 217l-410 -449q73 -103 200 -103z" />
    </font>
</defs>
</svg>
